bt.etree.org
etree.org Community Bittorrent Tracker
ArtistString Cheese Incident
ShowString Cheese Incident Warren Haynes Christmas Jam Asheville Civic Center Asheville, North Carolina 12/15/2012 (Schoeps CCM4V'S FOB)
Report this as
non-Trade-Friendly
Email us
Torrentsci2012-12-15.flac16.torrent (click to download)
Downloads assci2012-12-15.flac16
Info hash56d0da80f2a0d4f6e00bcc028d7cf6f709263106
DescriptionString Cheese Incident
Warren Haynes Christmas Jam
Asheville Civic Center
Asheville, North Carolina
12/15/2012

Source: Schoeps CCM4V'S(din)>Lunatec V2>Benchmark AD2K>
Sound Devices 722 (24/48)
FOB/DFC/KFC/ZFC/AARP 40' From Stage, 6 1/2' High
DSP: Sound Devices 722>Sound Forge 9.0>CD Wave>flac(16)
Recorded By: Z-Man
Seeded By: Z-Man

Disc I

01 Introduction By Warren Haynes
02 Colorado Bluebird Sky
03 *Joyful Sound >
04 *Junco Partner
05 #Can't Wait Another Day
06 River Trance >
07 Song In My Head >
08 Desert Dawn

Disc II

01 @Rosie
02 Enter Warren Haynes/Tuning
03 ^Outside Inside
04 #@^$+Quinn The Eskimo

* With Anders Osborne On Guitar
# With Count M'Butu On Percussion
@ With Karl Denson On Saxophone
^ With Warren Haynes On Guitar
$ With Nigel Hall On Keyboards
+ With Mike Barnes On Guitar

Flac Fingerprint

sci2012-12-15d01t01.flac:e761ad811dd4010873ac206fd6558996
sci2012-12-15d01t02.flac:2e9d7bb739b67dbc9a83ef7c5c980868
sci2012-12-15d01t03.flac:502f4da1bbe896ec28931304bb2b267d
sci2012-12-15d01t04.flac:900f97654a793081e192a5f136b21d9d
sci2012-12-15d01t05.flac:4d6a47e573cf5880dd985c1f21208f8c
sci2012-12-15d01t06.flac:5d9409bcf2ce8d7ad53357322475c84b
sci2012-12-15d01t07.flac:02101e0060798e90f7b4fa1f787d060f
sci2012-12-15d01t08.flac:46fbf086a9723a73c84e087b3dbe7477
sci2012-12-15d02t01.flac:940183113b4ed8b635bbba20772b5b09
sci2012-12-15d02t02.flac:970cfae5d5ec05d74b9591f6247cc368
sci2012-12-15d02t03.flac:245ee097330723ccef9e2f82b45fecb3
sci2012-12-15d02t04.flac:7257f0a1f225282e4a969b54420d86a1

Shntool

length expanded size cdr WAVE problems fmt ratio filename
1:04.05 11301404 B --- -- ---xx flac 0.4271 sci2012-12-15d01t01.flac
10:50.24 114716492 B --- -- ---xx flac 0.4867 sci2012-12-15d01t02.flac
10:37.45 112472684 B --- -- ---xx flac 0.4756 sci2012-12-15d01t03.flac
5:12.47 55147388 B --- -- ---xx flac 0.4779 sci2012-12-15d01t04.flac
7:46.37 82289468 B --- -- ---xx flac 0.4923 sci2012-12-15d01t05.flac
10:52.67 115170428 B --- -- ---xx flac 0.5122 sci2012-12-15d01t06.flac
6:26.59 68229212 B --- -- ---xx flac 0.5043 sci2012-12-15d01t07.flac
9:44.39 103109372 B --- -- ---xx flac 0.5163 sci2012-12-15d01t08.flac
10:59.71 116414636 B --- -- ---xx flac 0.5798 sci2012-12-15d02t01.flac
2:09.16 22793276 B --- -- ---xx flac 0.3757 sci2012-12-15d02t02.flac
10:25.22 110301788 B --- -- ---xx flac 0.4956 sci2012-12-15d02t03.flac
10:52.22 115064588 B --- -- ---xx flac 0.4910 sci2012-12-15d02t04.flac
97:02.04 1027010736 B 0.5013 (12 files)

Checksumssci2012-12-15d01t01.flac:e761ad811dd4010873ac206fd6558996
sci2012-12-15d01t02.flac:2e9d7bb739b67dbc9a83ef7c5c980868
sci2012-12-15d01t03.flac:502f4da1bbe896ec28931304bb2b267d
sci2012-12-15d01t04.flac:900f97654a793081e192a5f136b21d9d
sci2012-12-15d01t05.flac:4d6a47e573cf5880dd985c1f21208f8c
sci2012-12-15d01t06.flac:5d9409bcf2ce8d7ad53357322475c84b
sci2012-12-15d01t07.flac:02101e0060798e90f7b4fa1f787d060f
sci2012-12-15d01t08.flac:46fbf086a9723a73c84e087b3dbe7477
sci2012-12-15d02t01.flac:940183113b4ed8b635bbba20772b5b09
sci2012-12-15d02t02.flac:970cfae5d5ec05d74b9591f6247cc368
sci2012-12-15d02t03.flac:245ee097330723ccef9e2f82b45fecb3
sci2012-12-15d02t04.flac:7257f0a1f225282e4a969b54420d86a1
TypeString Cheese Incident
Last seederLast activity 17:21 ago
Size491.02 MB (514869601 Bytes)
Added2012-12-16 15:43:52
Views0
Hits1487
Snatched942 times
Upped byzmanatl
Num files13 files
File List
[Hide list]
filenamesizemd5
sci2012-12-15d02t01.flac64.37 MBN/A
sci2012-12-15d01t06.flac56.25 MBN/A
sci2012-12-15d02t04.flac53.88 MBN/A
sci2012-12-15d01t02.flac53.24 MBN/A
sci2012-12-15d02t03.flac52.14 MBN/A
sci2012-12-15d01t03.flac51.02 MBN/A
sci2012-12-15d01t08.flac50.77 MBN/A
sci2012-12-15d01t05.flac38.64 MBN/A
sci2012-12-15d01t07.flac32.81 MBN/A
sci2012-12-15d01t04.flac25.13 MBN/A
sci2012-12-15d02t02.flac8.17 MBN/A
sci2012-12-15d01t01.flac4.60 MBN/A
sci2012-12-15.textfile.txt2.8 kBN/A
Peers
[See full list]
6 seeders, 0 leechers = 6 peers total

Add a comment

Tom_of_Mule 2012-12-16 16:04:15
Thanks Z !
Tom
ratsnest74 2012-12-16 16:21:05
there were many others on stage the last song or two, dont know all their names
Reelboy 2012-12-16 16:26:37
Thanks again!
kinfolkiana 2012-12-16 16:49:17
Thanks Z!
mike1061 2012-12-16 20:08:37
Thanks
Mike
bigdaddybflo 2012-12-16 20:41:02
Did Lenny tape ??
Tomahawk Kid 2012-12-17 03:54:51
Thank you!
poizon45 2012-12-17 10:06:38
zman strikes again! thanks!
jimbo06 2012-12-17 15:16:58
thanx
jerryskid315 2012-12-17 18:14:05
Thanks z-man!
boedi-taper 2012-12-18 00:21:00
Thanks for this Z!!!!!!!!!!
hoerr 2012-12-18 14:00:56
YES YES YES! This was the set of the night. Thanks for the share Z!
robked 2012-12-20 04:40:15
Many Thanks
phishingbart 2013-02-10 14:14:08
been waiting thanks

Add a comment


http://etree.org : http://db.etree.org : http://forums.etree.org : http://wiki.etree.org : Legal : RSS Feed

Contents designed & maintained by the etree.org volunteers
1998-2014, etree.org, except where noted. All Rights Reserved.
Read our terms of service and privacy guidelines