bt.etree.org
etree.org Community Bittorrent Tracker
ArtistWarren Haynes
ShowWarren Haynes/Blind Boys Of Alabama Warren Haynes Christmas Jam Asheville Civic Center Asheville, North Carolina 12/15/2012 (Schoeps CCM4V'S FOB)
Report this as
non-Trade-Friendly
Email us
Torrentwarren-blind2012-12-15.flac16.torrent (click to download)
Downloads aswarren-blind2012-12-15.flac16
Info hash15260315d73db12dc86b93f2ba926accb002aad3
db linkhttp://db.etree.org/shn/129118 | Show | Source
DescriptionWarren Haynes With Blind Boys Of Alabama
Warren Haynes Christmas Jam
Asheville Civic Center
Asheville, North Carolina
12/15/2012

Source: Schoeps CCM4V'S(din)>Lunatec V2>Benchmark AD2K>
Sound Devices 722 (24/48)
FOB/DFC/KFC/ZFC/AARP 40' From Stage, 6 1/2' High
DSP: Sound Devices 722>Sound Forge 9.0>CD Wave>flac(16)
Recorded By: Z-Man
Seeded By: Z-Man

Disc I

01 Introduction By Warren Haynes
02 *People Get Ready
03 *#Soulshine
04 *Amazing Grace
05 *@^+John The Revelator

* With Warren Haynes On Vocals And Guitar
# With Nigel Hall On Keyboards
@ With Ron Holloway On Saxophone
^ With Trombone Shorty On Trumpet
+ With Karl Denson On Saxophone

Flac Fingerprint

warren-blind2012-12-15d01t01.flac:80e6e00612be5b7d2fec860d2b2bd098
warren-blind2012-12-15d01t02.flac:aec46f1e38a25d6f38e6559cef4bc19c
warren-blind2012-12-15d01t03.flac:88b90c2e17eaf39b6b2c7567d62479eb
warren-blind2012-12-15d01t04.flac:bfba6d21be47979c390e9eb91576b73e
warren-blind2012-12-15d01t05.flac:90868978a43d552b7e9099ead51dce85

Shntool

length expanded size cdr WAVE problems fmt ratio filename
1:40.50 17757644 B --- -- ---xx flac 0.3974 warren-blind2012-12-15d01t01.flac
4:04.29 43109852 B --- -- ---xx flac 0.4056 warren-blind2012-12-15d01t02.flac
5:26.07 57522908 B --- -- ---xx flac 0.4247 warren-blind2012-12-15d01t03.flac
8:21.13 88407020 B --- -- ---xx flac 0.4172 warren-blind2012-12-15d01t04.flac
10:12.17 107996828 B --- -- ---xx flac 0.4842 warren-blind2012-12-15d01t05.flac
29:44.41 314794252 B 0.4388 (5 files)





Checksumswarren-blind2012-12-15d01t01.flac:80e6e00612be5b7d2fec860d2b2bd098
warren-blind2012-12-15d01t02.flac:aec46f1e38a25d6f38e6559cef4bc19c
warren-blind2012-12-15d01t03.flac:88b90c2e17eaf39b6b2c7567d62479eb
warren-blind2012-12-15d01t04.flac:bfba6d21be47979c390e9eb91576b73e
warren-blind2012-12-15d01t05.flac:90868978a43d552b7e9099ead51dce85
TypeWarren Haynes
Last seederLast activity 6:00:17 ago
Size131.75 MB (138146768 Bytes)
Added2012-12-17 09:00:01
Views0
Hits1055
Snatched574 times
Upped byzmanatl
Num files6 files
File List
[Hide list]
filenamesizemd5
warren-blind2012-12-15d01t05.flac49.87 MBN/A
warren-blind2012-12-15d01t04.flac35.18 MBN/A
warren-blind2012-12-15d01t03.flac23.30 MBN/A
warren-blind2012-12-15d01t02.flac16.68 MBN/A
warren-blind2012-12-15d01t01.flac6.73 MBN/A
warren-blind2012-12-15.textfile.txt1.7 kBN/A
Peers
[See full list]
1 seeder, 0 leechers = 1 peer total

Add a comment

bigdaddybflo 2012-12-17 09:30:33
Did Lenny tape ??
Tom_of_Mule 2012-12-17 09:35:17
Thanks Z !
Tom
mule___ryder 2012-12-17 12:40:07
ty for sharing what im sure was a highlight of the jam!

-ryder
Blues_Ken 2012-12-17 12:55:26
Thank you Zman
Tomahawk Kid 2012-12-17 17:23:40
Thank you kindly!
mike1061 2012-12-17 18:03:46
Thanks
Mike
clarksblues 2012-12-17 21:24:27
thanksalot!!!!!!!!!!!!!!!!!!!!!!!!!!!!!!
jeetyet 2012-12-17 22:03:32
10 Q Z-man, i got the torrent, now can i get an amen?????
wheresjerry 2012-12-18 08:56:31
nice!!
philandjenny 2012-12-20 01:42:47
Lovely stuff, cheers zman
Phil :>)
ejb 2012-12-21 11:17:46
Thank you

Add a comment


http://etree.org : http://db.etree.org : http://forums.etree.org : http://wiki.etree.org : Legal : RSS Feed

Contents designed & maintained by the etree.org volunteers
1998-2014, etree.org, except where noted. All Rights Reserved.
Read our terms of service and privacy guidelines