bt.etree.org
etree.org Community Bittorrent Tracker
ArtistGrateful Dead
Showgd82-04-19.89371.nak700.martin.patched-19420.t-flac16
Report this as
non-Trade-Friendly
Email us
Torrentgd82-04-19.89371.aud-nak700.martin.patched.19420.sbeok.t-flac16.torrent (click to download)
Downloads asgd82-04-19.89371.aud-nak700.martin.patched.19420.sbeok.t-flac16
Info hasha746d1b0f44936f445a522db9891513c9516d587
db linkhttp://db.etree.org/shn/89371 | Show | Source
DescriptionThis is a tagged version of shnid: 89371

Grateful Dead
Baltimore Civic Center
Baltimore, MD
4/19/1982

MAC (Taped by Steven Martin, modified Nakamichi CM-700 mics > Sony TC-D5M) >
Nak Dragon playback > Cardas audiophile cables > HHB CDR 800 master CD >
Samsung SW-232B extraction (EAC v0.9 beta 4) > tracking (CD Wave) >
sector boundary verification (shntool v1.01) > .shn encoding (mkwACT v0.97 beta 1)

A > D by Steven Martin
EAC > SHN by Jack Warner (jackmw1ATsbcglobalDOTnet)
_________________________________________________________________________________________

--Set 1--
101-d1t01 - Jack Straw
102-d1t02 - They Love Each Other
103-d1t03 - On the Road Again
104-d1t04 - Peggy-O
105-d1t05 - Cassidy
106-d1t06 - It Must Have Been the Roses
107-d1t07 - Little Red Rooster
108-d1t08 - Cumberland Blues
109-d1t09 - Man Smart (Woman Smarter)
110-d1t10 - Might as Well

--Set 2--
201-d2t01 - Feel Like a Stranger ->
202-d2t02 - Franklin's Tower _>
203-d2t03 - Estimated Prophet ->
204-d2t04 - Terrapin Station ->
205-d2t05 - Drums ->
206-d3t01 - Raven Space ->
207-d3t02 - The Wheel ->
208-d3t03 - Truckin' ->
209-d3t04 - Stella Blue ->
210-d3t05 - Around & Around ->
211-d3t06 - Good Lovin'

--Encore--
212-d3t07 - Brokedown Palace
_________________________________________________________________________________________

Uploaded to tol.etree.org 9/6/03 (original shnid=19420)

Patched using:(shnid=89313)
MAC > R1 7.5ips 1/4 track > Technics RS-1506 > Grace designs Lunatec V3 (pre only) >
Korg MR-1000 > DSD-DFF 1bit 5.64 Mhz > Audio Gate SW > 24/96 WAV
---------------------------------------------------------
Tech Notes

SHNs were decoded to wave and Audition 3.0 was used to reassemble the tracks back to 1
long wave. Audition 3.0 was used to align & synch the SBD & AUD sources. Audition 3.0
used to adjust the volume for AUDs, matrix/CTR and LFE channels. Surcode CD Pro DTS
was used to encode to DTS.
- Mixed by kevtobin@yahoo.com
- FLAC conversion 05-JAN-2008
---------------------------------------------------------

Audio Patches:

1) 5 minutes into Estimated Prophet, 8.458 seconds were missing from the audience
source and was filled in with audio from the soundboard source. This portion of the audio
was normalized to blend in better.

2) At the start of Drums, 4.491 seconds were missing from the audience source and was
filled in with audio from the soundboard source. This portion of the audio was
normalized to blend in better.

3) At the end of Drums, 54.256 seconds were missing from the audience source and was
filled in with audio from the soundboard source. This portion of the audio was
normalized to blend in better.

4) At the end of Good Lovin'. 5 minutes and 23.256 seconds were missing from the audience
source and was filled in with audio from the soundboard source. This portion
of the audio was normalized to blend in better. This includes all of the encore.

5) Matrix\DTS were synced using the Steve Martin audience as a reference as the soundboard ran slightly fast at approx .5% or .25 seconds per minute.

Brokedown House Productions
_________________________________________________________________________________________

Tagging notes:
Show information is embedded within the header of each flac file.
It will display on any player capable of directly playing flac files.
If converted to wav during processing, all tags will be stripped,
however audio data will remain unaffected.
If you must transcode to a lossy format, do so directly Flac > Lossy.
Use ffp to validate audio integrity.
Md5 values will change if tagging is altered.
B. Proctor 2-09-11
_________________________________________________________________________________________

length expanded size cdr WAVE problems filename
6:47.22 71846588 --- -- ----- gd1982-04-19d1t01.wav
8:48.19 93183932 --- -- ----- gd1982-04-19d1t02.wav
4:28.56 47406956 --- -- ----- gd1982-04-19d1t03.wav
8:37.41 91295276 --- -- ----- gd1982-04-19d1t04.wav
6:13.29 65865452 --- -- ----- gd1982-04-19d1t05.wav
6:17.21 66552236 --- -- ----- gd1982-04-19d1t06.wav
8:48.30 93209804 --- -- ----- gd1982-04-19d1t07.wav
5:38.66 59778476 --- -- ----- gd1982-04-19d1t08.wav
7:34.16 80123276 --- -- ----- gd1982-04-19d1t09.wav
4:45.19 50318732 --- -- ----- gd1982-04-19d1t10.wav
9:28.01 100197596 --- -- ----- gd1982-04-19d2t01.wav
13:24.21 141875036 --- -- ----- gd1982-04-19d2t02.wav
12:09.40 128689724 --- -- ----- gd1982-04-19d2t03.wav
11:34.63 122569820 --- -- ----- gd1982-04-19d2t04.wav
7:36.69 80600732 --- -- ----- gd1982-04-19d2t05.wav
11:35.49 122713292 --- -- ----- gd1982-04-19d3t01.wav
6:01.04 63689852 --- -- ----- gd1982-04-19d3t02.wav
7:29.04 79213052 --- -- ----- gd1982-04-19d3t03.wav
8:58.66 95058476 --- -- ----- gd1982-04-19d3t04.wav
3:49.29 40463852 --- -- ----- gd1982-04-19d3t05.wav
9:23.58 99449660 --- -- ----- gd1982-04-19d3t06.wav
5:23.13 57007820 --- -- ----- gd1982-04-19d3t07.wav
174:53.61 1851109640 B (totals for 22 files, 1.0000 overall compression ratio)

Checksumsgd1982-04-19d1t01.flac:211b6964e048165bd5e209feb763eb21
gd1982-04-19d1t02.flac:cd537298a7f2fc0b39eb60d263c47713
gd1982-04-19d1t03.flac:6ecdbc53ce9580f2a3bf4ce4011120f0
gd1982-04-19d1t04.flac:23a744da6f10a6ce769ff3a9e0e7e35d
gd1982-04-19d1t05.flac:2bfd1a46a30b827ec487f7f2ce3bc394
gd1982-04-19d1t06.flac:718b9ba301569be7212861d7ff129d57
gd1982-04-19d1t07.flac:4382ed4bd1f5afc36be770b31154d372
gd1982-04-19d1t08.flac:eb56015b7441925d3ddf9a3d4a349c11
gd1982-04-19d1t09.flac:f9d8116e706f0fa6be90d889181d9f34
gd1982-04-19d1t10.flac:3c5b619524b1881bc02d47a2433e22c5
gd1982-04-19d2t01.flac:f3e15a0e5befcc69bf35c55bbf325fe5
gd1982-04-19d2t02.flac:af0c95b5035137423ebd6f85d8666f38
gd1982-04-19d2t03.flac:faacfe0f5fd105675c255bc1ab230a8f
gd1982-04-19d2t04.flac:6b6f4f5f0b0ddff4a6f1eb8801fb97e1
gd1982-04-19d2t05.flac:bb116b0e6bc243d4c8e2f7c8b9426b74
gd1982-04-19d3t01.flac:4b5b2b35416509985a9a66cc5364e185
gd1982-04-19d3t02.flac:2fb71424e52d2a5fdb4bf7b1f09c6cf1
gd1982-04-19d3t03.flac:953625b455078ad01b11c7652575a44b
gd1982-04-19d3t04.flac:a76652c2d6d8a36dc6df8cfa65c41a79
gd1982-04-19d3t05.flac:e90fea5301c48ec91d5d9768f5ff052b
gd1982-04-19d3t06.flac:425c5f0bb09ab9bd1fd481d59a1fd21a
gd1982-04-19d3t07.flac:d73b03ecdd0bcc9843f9cfb09d8b046f
TypeGrateful Dead
Last seederLast activity 18:39 ago
Size996.90 MB (1045329299 Bytes)
Added2012-12-17 09:07:09
Views0
Hits397
Snatched85 times
Upped bygermain
Num files
[See full list]
26 files
Peers
[See full list]
0 seeders, 1 leecher = 1 peer total

No comments yet

Add a comment


http://etree.org : http://db.etree.org : http://forums.etree.org : http://wiki.etree.org : Legal : RSS Feed

Contents designed & maintained by the etree.org volunteers
1998-2014, etree.org, except where noted. All Rights Reserved.
Read our terms of service and privacy guidelines