bt.etree.org
etree.org Community Bittorrent Tracker
ArtistOther
ShowTrombone Shorty And Orleans Avenue Warren Haynes Christmas Jam Asheville Civic Center Asheville, North Carolina 12/15/2012 (Schoeps CCM4V'S FOB)
Report this as
non-Trade-Friendly
Email us
Torrentshorty2012-12-15.flac16.torrent (click to download)
Downloads asshorty2012-12-15.flac16
Info hash764f4c7f2924051cbf69f3fcfff05257f925f46a
DescriptionTrombone Shorty And Orleans Avenue
Warren Haynes Christmas Jam
Asheville Civic Center
Asheville, North Carolina
12/15/2012

Source: Schoeps CCM4V'S(din)>Lunatec V2>Benchmark AD2K>
Sound Devices 722 (24/48)
FOB/DFC/KFC/ZFC/AARP 40' From Stage, 6 1/2' High
DSP: Sound Devices 722>Sound Forge 9.0>CD Wave>flac(16)
Recorded By: Z-Man
Seeded By: Z-Man

Disc I

01 Introduction By Warren Haynes
02 Buckjump
03 Craziest Things
04 Encore >
05 Hurricane Season
06 *Down By The Riverside
07 #Do To Me

* With The Blind Boys Of Alabama On Vocals
# With Warren Haynes On Guitar

Flac Fingerprint

shorty2012-12-15d01t01.flac:4be09007e5d792188d51eee61833ef73
shorty2012-12-15d01t02.flac:0332204da7c8b4d137c0c3f85b9a5b8b
shorty2012-12-15d01t03.flac:66b642538893f89b6b6bb0e381de342a
shorty2012-12-15d01t04.flac:9a0e289ad91975e7bc948aadf56eabd6
shorty2012-12-15d01t05.flac:7358b71bcd9858c91023180b5684565a
shorty2012-12-15d01t06.flac:83936c6fd342853a2a380ae4ebe5ea1e
shorty2012-12-15d01t07.flac:bcd5209336cc731800fecf15b9680888

Shntool

length expanded size cdr WAVE problems fmt ratio filename
0:21.46 3812636 B --- -- ---xx flac 0.4197 shorty2012-12-15d01t01.flac
4:48.55 50932604 B --- -- ---xx flac 0.5873 shorty2012-12-15d01t02.flac
3:34.09 37770812 B --- -- ---xx flac 0.5845 shorty2012-12-15d01t03.flac
4:36.19 48731132 B --- -- ---xx flac 0.5794 shorty2012-12-15d01t04.flac
4:51.16 51370076 B --- -- ---xx flac 0.6064 shorty2012-12-15d01t05.flac
7:20.31 77688956 B --- -- ---xx flac 0.5217 shorty2012-12-15d01t06.flac
10:17.53 108963500 B --- -- ---xx flac 0.5844 shorty2012-12-15d01t07.flac
35:50.04 379269716 B 0.5727 (7 files)






Checksumsshorty2012-12-15d01t01.flac:4be09007e5d792188d51eee61833ef73<br />
shorty2012-12-15d01t02.flac:0332204da7c8b4d137c0c3f85b9a5b8b<br />
shorty2012-12-15d01t03.flac:66b642538893f89b6b6bb0e381de342a<br />
shorty2012-12-15d01t04.flac:9a0e289ad91975e7bc948aadf56eabd6<br />
shorty2012-12-15d01t05.flac:7358b71bcd9858c91023180b5684565a<br />
shorty2012-12-15d01t06.flac:83936c6fd342853a2a380ae4ebe5ea1e<br />
shorty2012-12-15d01t07.flac:bcd5209336cc731800fecf15b9680888<br />
TypeOther
Last seederLast activity 7:27 ago
Size207.13 MB (217192705 Bytes)
Added2012-12-17 15:16:02
Views0
Hits742
Snatched363 times
Upped byzmanatl
Num files
[See full list]
8 files
Seeders
[Hide list]
2 Seeder(s)
ip:portclient
version
ul
bytes
dl
bytes
ratiocompleteul
rate
dl
rate
time
connected
time
left
idle
24.101.53.xxx:19181 μtorrent 3.4.2.0 0 B 0 B N/A 100.00%
N/A N/A 5 days, 14:33:46 N/A 7:27
32.216.111.xxx:21935 μtorrent 3.3.1.0 0 B 0 B N/A 100.00%
N/A N/A 8:54:01 N/A 23:47
0 of 2 firewalled (0%) 100.00%
N/AN/A
Leechers
[Hide list]
0 Leecher(s)

Add a comment

Blues_Ken 2012-12-17 15:35:53
Thank you Zman
bigdaddybflo 2012-12-17 16:18:15
Where was Lenny ??
Tomahawk Kid 2012-12-17 17:24:53
Thank you very much!
Tom_of_Mule 2012-12-17 17:44:45
Thanks Z !
Tom
piles76 2012-12-17 17:48:47
Huge thanks for this. Cheers.
mike1061 2012-12-17 18:04:29
Thanks
Mike
davis1 2012-12-17 19:18:10
Avett Bros??
coachdietsch 2012-12-17 21:02:30
1. intro
2. Buckjump
3. Craziest Things
4. Encore>
5. Hurricane Seasom
6. Down By Riverside
7. Do To Me

thanks zman once again!
Pro_ject 2012-12-19 04:42:38
Thank you!
jason5000 2012-12-19 11:01:15
Awesome! Thanks!

Add a comment


http://etree.org : http://db.etree.org : http://forums.etree.org : http://wiki.etree.org : Legal : RSS Feed

Contents designed & maintained by the etree.org volunteers
1998-2014, etree.org, except where noted. All Rights Reserved.
Read our terms of service and privacy guidelines