bt.etree.org
etree.org Community Bittorrent Tracker
ArtistOther
ShowThe Lee Boys Warren Haynes Christmas Jam By Day Asheville Music Hall Asheville, North Carolina 12/15/2012 (Schoeps CCM4V'S FOB)
Report this as
non-Trade-Friendly
Email us
Torrentleeboys2012-12-15.flac16.torrent (click to download)
Downloads asleeboys2012-12-15.flac16
Info hashe30eda42f0509e86b77641885ad2b537972955ad
db linkhttp://db.etree.org/shn/129221 | Show | Source
DescriptionThe Lee Boys
Warren Haynes Christmas Jam By Day
Asheville Music Hall
Asheville, North Carolina
12/15/2012

Source: Schoeps CCM4V'S(din)>Lunatec V2>Benchmark AD2K>
Sound Devices 722 (24/48)
FOB/DFC/KFC/ZFC/AARP 14' From Stage, 7' High
DSP: Sound Devices 722>Sound Forge 9.0>CD Wave>flac(16)
Recorded By: Z-Man
Seeded By: Z-Man

Disc I

01 I Wanna Praise Your Name >
02 ? >
03 Yesterday >
04 ?
05 *I'm Not Tired
06 *Groove With Me *I'll Take You There >
07 *I'll Take You There
08 *Superstitious >
09 *We Got The Funk >
10 *Superstitious

* With Shane Pruitt On Guitar

Flac Fingerprint

leeboys2012-12-15d01t01.flac:d9ed12377d0a12c5ba7afc362633d265
leeboys2012-12-15d01t02.flac:cfaca2b46e6eff6743fb7b3c26afc29d
leeboys2012-12-15d01t03.flac:0a974e5523fd985b84b980da5f98bddc
leeboys2012-12-15d01t04.flac:f1022fa63f4002961e8070d6ba7aaa79
leeboys2012-12-15d01t05.flac:09973ee79a37839a36fa737474861af0
leeboys2012-12-15d01t06.flac:e28866c1bd14521f57135ad5918659a3
leeboys2012-12-15d01t07.flac:6b8aaae2eff82ec99fa79d61a8d1a63f
leeboys2012-12-15d01t08.flac:3d5df6ee685ce4e85c21f71b90cb989a
leeboys2012-12-15d01t09.flac:0fb49d07eb33d6e53e9ba6915cac9135
leeboys2012-12-15d01t10.flac:01500d5f6fac73638c5a8f5daa079e65

Shntool

length expanded size cdr WAVE problems fmt ratio filename
4:19.09 45708812 B --- -- ---xx flac 0.5069 leeboys2012-12-15d01t01.flac
1:27.20 15393884 B --- -- ---xx flac 0.5854 leeboys2012-12-15d01t02.flac
2:10.12 22960268 B --- -- ---xx flac 0.5331 leeboys2012-12-15d01t03.flac
0:55.22 9753788 B --- -- ---xx flac 0.5208 leeboys2012-12-15d01t04.flac
7:09.54 75802652 B --- -- ---xx flac 0.5272 leeboys2012-12-15d01t05.flac
3:40.51 38927996 B --- -- ---xx flac 0.5671 leeboys2012-12-15d01t06.flac
4:23.54 46520252 B --- -- ---xx flac 0.5034 leeboys2012-12-15d01t07.flac
5:32.48 58677740 B --- -- ---xx flac 0.5636 leeboys2012-12-15d01t08.flac
6:16.30 66397004 B --- -- ---xx flac 0.5628 leeboys2012-12-15d01t09.flac
1:30.46 15984236 B --- -- ---xx flac 0.4780 leeboys2012-12-15d01t10.flac
37:25.46 396126632 B 0.5378 (10 files)



Checksumsleeboys2012-12-15d01t01.flac:d9ed12377d0a12c5ba7afc362633d265
leeboys2012-12-15d01t02.flac:cfaca2b46e6eff6743fb7b3c26afc29d
leeboys2012-12-15d01t03.flac:0a974e5523fd985b84b980da5f98bddc
leeboys2012-12-15d01t04.flac:f1022fa63f4002961e8070d6ba7aaa79
leeboys2012-12-15d01t05.flac:09973ee79a37839a36fa737474861af0
leeboys2012-12-15d01t06.flac:e28866c1bd14521f57135ad5918659a3
leeboys2012-12-15d01t07.flac:6b8aaae2eff82ec99fa79d61a8d1a63f
leeboys2012-12-15d01t08.flac:3d5df6ee685ce4e85c21f71b90cb989a
leeboys2012-12-15d01t09.flac:0fb49d07eb33d6e53e9ba6915cac9135
leeboys2012-12-15d01t10.flac:01500d5f6fac73638c5a8f5daa079e65
TypeOther
Last seederLast activity 1 day, 03:31:49 ago
Size203.16 MB (213032365 Bytes)
Added2012-12-17 16:50:50
Views0
Hits552
Snatched196 times
Upped byzmanatl
Num files11 files
File List
[Hide list]
filenamesizemd5
leeboys2012-12-15d01t05.flac38.11 MBN/A
leeboys2012-12-15d01t09.flac35.64 MBN/A
leeboys2012-12-15d01t08.flac31.54 MBN/A
leeboys2012-12-15d01t07.flac22.33 MBN/A
leeboys2012-12-15d01t01.flac22.09 MBN/A
leeboys2012-12-15d01t06.flac21.05 MBN/A
leeboys2012-12-15d01t03.flac11.67 MBN/A
leeboys2012-12-15d01t02.flac8.59 MBN/A
leeboys2012-12-15d01t10.flac7.29 MBN/A
leeboys2012-12-15d01t04.flac4.84 MBN/A
leeboys2012-12-15.textfile.txt2.3 kBN/A
Peers
[See full list]
1 seeder, 0 leechers = 1 peer total

Add a comment

bigdaddybflo 2012-12-17 17:07:09
Did Lenny tape ??
Tomahawk Kid 2012-12-17 17:26:50
Thank you!
Tom_of_Mule 2012-12-17 17:47:11
Thanks Z !
Tom
mike1061 2012-12-17 18:05:00
Thanks
Mike
raimax 2012-12-17 22:32:28
Thank you

Add a comment


http://etree.org : http://db.etree.org : http://forums.etree.org : http://wiki.etree.org : Legal : RSS Feed

Contents designed & maintained by the etree.org volunteers
1998-2014, etree.org, except where noted. All Rights Reserved.
Read our terms of service and privacy guidelines