bt.etree.org
etree.org Community Bittorrent Tracker
ArtistOther
Showdragon smoke - los angeles, ca - dec 12, 2012 - akg c422/sbd
Report this as
non-Trade-Friendly
Email us
Torrentds2012-12-12matrix.flac16.torrent (click to download)
Downloads asds2012-12-12matrix.flac16
Info hash4f685a09ed88f4af62d227e25f0f865caef400a0
DescriptionDragon Smoke
The Mint (6010 West Pico Boulevard, Los Angeles, CA 90035)
Wednesday, December 12, 2012



1) AKG c422 > s42 > Grace Design Lunatec V2 > Sonic AD2K+ > Roland R-44
2) SBD > XLR (x2) > Roland R-44 (Oade Concert Mod)


Location: ~Center, ~10' back, ~8' high, Matthellini clamp/magic finger + Manfrotto 099b extension pole, nanoclamp
Mic Config: X/Y (supercardioid)
Record Format: 24-bit, 96 kHz
Transfer: SDHC card > USB 2.0 card reader > MacBook Air
Edits and Tracking: quadratic (linear) fades, Waves C6, change gain (Wave Editor 1.5.7)
Resample: Ultra-steep, Linear Phase (Izotope ReSampler/Wave Editor 1.5.7)
Dither: Ultra Shape, High Amount (MBIT+/Wave Editor 1.5.7)
Final Format: 16-bit, 44.1 kHz
Encode, Verify, Tagging, ReplayGain: xACT



01. (Set One)
02. Sunday Morning
03. Let A Woman
04. Country Living
05. Hercules
06. Two Bit Town
07. Love Is A Beautiful Thing
08. Out In The Country
09. Valarie
10. Padlock

11. (Set Two)
12. Bayou Country
13. Grandma's Hands
14. Turn It Out
15. Here 'Dey Come
16. Won't Be Long
17. Slippin' Into Darkness
18. She Thinks I Still Care
19. Hell Below
20. It's A Pity

21. Will It Go 'Round In Circles



length expanded size cdr WAVE problems fmt ratio filename
1:10.59 12486812 B --- -- ----- wav 1.0000 ds2012-12-12matrixd1t01.wav
3:24.07 36002108 B --- -- ----- wav 1.0000 ds2012-12-12matrixd1t02.wav
8:37.39 91290572 B --- -- ----- wav 1.0000 ds2012-12-12matrixd1t03.wav
3:53.29 41169452 B --- -- ----- wav 1.0000 ds2012-12-12matrixd1t04.wav
7:34.34 80165612 B --- -- ----- wav 1.0000 ds2012-12-12matrixd1t05.wav
5:03.64 53599772 B --- -- ----- wav 1.0000 ds2012-12-12matrixd1t06.wav
8:45.13 92640620 B --- -- ----- wav 1.0000 ds2012-12-12matrixd1t07.wav
5:01.13 53127020 B --- -- ----- wav 1.0000 ds2012-12-12matrixd1t08.wav
13:56.04 147479852 B --- -- ----- wav 1.0000 ds2012-12-12matrixd1t09.wav
8:40.46 91836236 B --- -- ----- wav 1.0000 ds2012-12-12matrixd1t10.wav
0:39.43 6980780 B --- -- ----- wav 1.0000 ds2012-12-12matrixd2t01.wav
7:29.02 79208348 B --- -- ----- wav 1.0000 ds2012-12-12matrixd2t02.wav
10:30.63 111280220 B --- -- ----- wav 1.0000 ds2012-12-12matrixd2t03.wav
4:38.54 49166252 B --- -- ----- wav 1.0000 ds2012-12-12matrixd2t04.wav
7:55.39 83881772 B --- -- ----- wav 1.0000 ds2012-12-12matrixd2t05.wav
8:26.48 89371340 B --- -- ----- wav 1.0000 ds2012-12-12matrixd2t06.wav
11:29.25 121598444 B --- -- ----- wav 1.0000 ds2012-12-12matrixd2t07.wav
5:09.17 54547628 B --- -- ----- wav 1.0000 ds2012-12-12matrixd2t08.wav
9:02.43 95709980 B --- -- ----- wav 1.0000 ds2012-12-12matrixd2t09.wav
10:22.45 109826684 B --- -- ----- wav 1.0000 ds2012-12-12matrixd2t10.wav
12:17.61 130150316 B --- -- ----- wav 1.0000 ds2012-12-12matrixd2t11.wav
154:08.73 1631519820 B 1.0000 (21 files)



### FREE ###
The musicians allowed this recording for FREE.
PLEASE...
- Only share this recording with others for FREE.
- Do NOT sell or trade this recording for profit of any kind.

### SUPPORT MUSICIANS ###
Help ensure live recordings remain easily accessible and FREE by supporting the musicians:
- attend their live shows
- purchase their dry goods
- buy their studio releases



++ recorded, transferred and uploaded by macdaddy (December 17, 2012)
Checksumsds2012-12-12matrixd1t01.flac:86153822c5f1cb031a0ea2a72a9edfdb<br />
ds2012-12-12matrixd1t02.flac:9041f566e0933916ceebc913d24ee373<br />
ds2012-12-12matrixd1t03.flac:35cacdf8b6471736ff783c818f05e955<br />
ds2012-12-12matrixd1t04.flac:e0f6ba3e1a5163729f0861cf23cab74c<br />
ds2012-12-12matrixd1t05.flac:ffc6caccffdab7050c0932e412b8bead<br />
ds2012-12-12matrixd1t06.flac:609a65a3e45948e71dbddb0eda8f4d75<br />
ds2012-12-12matrixd1t07.flac:a91bbb2e0099894c53da388524b951cc<br />
ds2012-12-12matrixd1t08.flac:20998ab4e1745abd4a66fab7b78aa0ac<br />
ds2012-12-12matrixd1t09.flac:66e102b957c441888a14eac11630502d<br />
ds2012-12-12matrixd1t10.flac:5c370dc3386e9f5edea1b46df66d2093<br />
ds2012-12-12matrixd2t01.flac:0cd66c10789f78b2db66a05c228376cd<br />
ds2012-12-12matrixd2t02.flac:ac23789c6521085af3b7821f33a0b50d<br />
ds2012-12-12matrixd2t03.flac:bb8b8e102ef7c8482baab6550552abae<br />
ds2012-12-12matrixd2t04.flac:f4e54c32c3034afcba6a143c2ecf6c08<br />
ds2012-12-12matrixd2t05.flac:706afa3079c7555fe5cd65b0f09de061<br />
ds2012-12-12matrixd2t06.flac:5d1353d5adeb2785abba746e54b657ac<br />
ds2012-12-12matrixd2t07.flac:8f100f5b1cf99621275ab2d9925ecf70<br />
ds2012-12-12matrixd2t08.flac:effb4ed72eba4deee271366a5a7821ce<br />
ds2012-12-12matrixd2t09.flac:6ad916b0c293d914f76b218a9516c488<br />
ds2012-12-12matrixd2t10.flac:e6a7965c413ca0c0da6d2466e5445da0<br />
ds2012-12-12matrixd2t11.flac:b240e468598cc48b53149876f1ab0498
TypeOther
Last seederLast activity 4 days, 06:01:30 ago
Size825.04 MB (865119694 Bytes)
Added2012-12-17 17:35:05
Views0
Hits483
Snatched137 times
Upped bymacdaddys.info
Num files
[See full list]
27 files
Peers
[See full list]
1 seeder, 0 leechers = 1 peer total

Add a comment

lowspark211 2012-12-17 19:17:20
thanks for this.

microburst 2012-12-17 20:42:03
Is this the Stanton Moore/Ivan Neville/Eric Lindell/Rob Mercurio Dragon Smoke? Setlist indicates it might. They never come up to NY...thanks for this!
kidadam 2012-12-17 21:36:24
same setlist every show
sciphotoman 2012-12-18 00:09:27
yes please
RandyBayers 2012-12-19 17:38:25
thanks for sharing this excellent recording!
here is a slightly updated setlist:

01. (Set One)
02. Sunday Morning
03. Let A Woman Be A Woman, Let A Man Be A Man [Dyke & The Blazers cover]
04. Country Livin'
05. Hercules [Aaron Neville cover]
06. Two Bit Town
07. Love Is A Beautiful Thing
08. Out In The Country [The Meters cover]
09. Valarie [The Zutons cover] > Be Thankful For What You Got [William DeVaughn]
10. Padlock [from Ivan's 1995 album "Thanks", written by Gerald Tillman]

11. (Set Two)
12. Bayou Country
13. Grandma's Hands [Bill Withers cover] (inc. No Diggity teases)
14. Turn It Out
15. Here 'Dey Come [Wild Tchoupitoulas cover]
16. Won't Be Long
17. Slippin' Into Darkness [War cover] > Fire On The Bayou [The Meters cover] >
Fly Like An Eagle [Steve Miller Band cover] > Slippin' Into Darkness [War cover] (reprise)
18. She Thinks I Still Care
19. (Don't Worry) If There's a Hell Below, We're All Going to Go [Curtis Mayfield cover]
20. It's A Pity
Encore:
21. Will It Go 'Round In Circles [Billy Preston cover]
ronco 2012-12-20 00:30:53
Nice One.....Thanks

Add a comment


http://etree.org : http://db.etree.org : http://forums.etree.org : http://wiki.etree.org : Legal : RSS Feed

Contents designed & maintained by the etree.org volunteers
1998-2014, etree.org, except where noted. All Rights Reserved.
Read our terms of service and privacy guidelines