bt.etree.org
etree.org Community Bittorrent Tracker
ArtistOther
ShowWhetherman Warren Haynes Christmas Jam By Day Asheville Music Hall Asheville, North Carolina 12/15/2012 (Schoeps CCM4V'S FOB)
Report this as
non-Trade-Friendly
Email us
Torrentwhetherman2012-12-15.flac16.torrent (click to download)
Downloads aswhetherman2012-12-15.flac16
Info hashd37d500be0e262e444b91fd7beb7564459a86ca6
DescriptionWhetherman
Warren Haynes Christmas Jam By Day
Asheville Music Hall
Asheville, North Carolina
12/15/2012

Source: Schoeps CCM4V'S(din)>Lunatec V2>Benchmark AD2K>
Sound Devices 722 (24/48)
FOB/DFC/KFC/ZFC/AARP 14' From Stage, 7' High
DSP: Sound Devices 722>Sound Forge 9.0>CD Wave>flac(16)
Recorded By: Z-Man
Seeded By: Z-Man

Disc I

01 Something To Come
02 Summer Blooms
03 Sun And Pen
04 The Orchard
05 Black Bean
06 Penny Street
07 I Shaped The Home
08 Bridges On The Hills
09 Sea Line

Flac Fingerprint

whetherman2012-12-15d01t01.flac:8b9ba368b2404b62740eee095387a7f0
whetherman2012-12-15d01t02.flac:e368787850b6a71aa8626ca96fe7f0e7
whetherman2012-12-15d01t03.flac:a5760fb66237057d44c849d87c52634a
whetherman2012-12-15d01t04.flac:9ed3e7037688db6243a6f5c8b9a644e2
whetherman2012-12-15d01t05.flac:37d327a71bcb471c4c5f1b5a72a62fcb
whetherman2012-12-15d01t06.flac:b8af698adb8bff54fb90399da2bc57b2
whetherman2012-12-15d01t07.flac:b37648e4e92716645a7288756956ef24
whetherman2012-12-15d01t08.flac:975a205d78892ea3acbbb10c775a316a
whetherman2012-12-15d01t09.flac:82418271364da45a80e282bd671631f6

Shntool

length expanded size cdr WAVE problems fmt ratio filename
4:15.74 45156092 B --- -- ---xx flac 0.4284 whetherman2012-12-15d01t01.flac
5:07.09 54176012 B --- -- ---xx flac 0.4265 whetherman2012-12-15d01t02.flac
4:35.69 48672332 B --- -- ---xx flac 0.4374 whetherman2012-12-15d01t03.flac
5:22.07 56817308 B --- -- ---xx flac 0.4511 whetherman2012-12-15d01t04.flac
3:11.09 33713612 B --- -- ---xx flac 0.4483 whetherman2012-12-15d01t05.flac
4:51.21 51381836 B --- -- ---xx flac 0.4335 whetherman2012-12-15d01t06.flac
6:29.23 68673740 B --- -- ---xx flac 0.4135 whetherman2012-12-15d01t07.flac
5:39.35 59881964 B --- -- ---xx flac 0.4167 whetherman2012-12-15d01t08.flac
6:40.60 70701164 B --- -- ---xx flac 0.4622 whetherman2012-12-15d01t09.flac
46:13.07 489174060 B 0.4350 (9 files)





Checksumswhetherman2012-12-15d01t01.flac:8b9ba368b2404b62740eee095387a7f0
whetherman2012-12-15d01t02.flac:e368787850b6a71aa8626ca96fe7f0e7
whetherman2012-12-15d01t03.flac:a5760fb66237057d44c849d87c52634a
whetherman2012-12-15d01t04.flac:9ed3e7037688db6243a6f5c8b9a644e2
whetherman2012-12-15d01t05.flac:37d327a71bcb471c4c5f1b5a72a62fcb
whetherman2012-12-15d01t06.flac:b8af698adb8bff54fb90399da2bc57b2
whetherman2012-12-15d01t07.flac:b37648e4e92716645a7288756956ef24
whetherman2012-12-15d01t08.flac:975a205d78892ea3acbbb10c775a316a
whetherman2012-12-15d01t09.flac:82418271364da45a80e282bd671631f6
TypeOther
Last seederLast activity 3 days, 12:47:52 ago
Size202.95 MB (212804491 Bytes)
Added2012-12-17 21:38:42
Views0
Hits466
Snatched146 times
Upped byzmanatl
Num files10 files
File List
[Hide list]
filenamesizemd5
whetherman2012-12-15d01t09.flac31.17 MBN/A
whetherman2012-12-15d01t07.flac27.08 MBN/A
whetherman2012-12-15d01t04.flac24.45 MBN/A
whetherman2012-12-15d01t08.flac23.80 MBN/A
whetherman2012-12-15d01t02.flac22.04 MBN/A
whetherman2012-12-15d01t06.flac21.24 MBN/A
whetherman2012-12-15d01t03.flac20.31 MBN/A
whetherman2012-12-15d01t01.flac18.45 MBN/A
whetherman2012-12-15d01t05.flac14.41 MBN/A
whetherman2012-12-15.textfile.txt2.1 kBN/A
Peers
[See full list]
1 seeder, 0 leechers = 1 peer total

Add a comment

Tom_of_Mule 2012-12-17 22:18:13
Thanks Z !
Tom
Blues_Ken 2012-12-17 22:55:05
Thank you Zman
Tomahawk Kid 2012-12-18 03:31:29
Thank you!
bigdaddybflo 2012-12-18 10:22:04
How did Lenny do on tapin??
mike1061 2012-12-20 20:41:17
Thanks
Mike

Add a comment


http://etree.org : http://db.etree.org : http://forums.etree.org : http://wiki.etree.org : Legal : RSS Feed

Contents designed & maintained by the etree.org volunteers
1998-2014, etree.org, except where noted. All Rights Reserved.
Read our terms of service and privacy guidelines