bt.etree.org
etree.org Community Bittorrent Tracker
ArtistOther
ShowThe Revivalists Warren Haynes Christmas Jam By Day Asheville Music Hall Asheville, North Carolina 12/15/2012 (Schoeps CCM4V'S FOB)
Report this as
non-Trade-Friendly
Email us
Torrentrevivalists2012-12-15.flac16.torrent (click to download)
Downloads asrevivalists2012-12-15.flac16
Info hash417fb2a4c7b7eb4c31861be627aa752f824769be
DescriptionThe Revivalists
Warren Haynes Christmas Jam By Day
Asheville Music Hall
Asheville, North Carolina
12/15/2012

Source: Schoeps CCM4V'S(din)>Lunatec V2>Benchmark AD2K>
Sound Devices 722 (24/48)
FOB/DFC/KFC/ZFC/AARP 14' From Stage, 7' High
DSP: Sound Devices 722>Sound Forge 9.0>CD Wave>flac(16)
Recorded By: Z-Man
Seeded By: Z-Man

Disc I

01 Introduction
02 ?
03 ?
04 ? >
05 ?
06 ?
07?
08 Happy Birthday Ed
09 *

Flac Fingerprint

revivalists2012-12-15d01t01.flac:90187db3f2e89de2e46745ebef94c3dd
revivalists2012-12-15d01t02.flac:bf44600cbb51ed5692268674835856a3
revivalists2012-12-15d01t03.flac:89bf1f0a1e83ed79f498c7b3b9281945
revivalists2012-12-15d01t04.flac:a175e4e0b334e1c11b30245a283ac413
revivalists2012-12-15d01t05.flac:cd939f2be65cd670c42ca749ddb38ec8
revivalists2012-12-15d01t06.flac:e1c68bbfebf7af94c57f2cfee7f3b6fc
revivalists2012-12-15d01t07.flac:1abab88de932275322d985d46fb0802e
revivalists2012-12-15d01t08.flac:a1be1c622135243adeab31c53e4f5d16
revivalists2012-12-15d01t09.flac:76afd85258008cf2681d490375978ed1

Shntool

length expanded size cdr WAVE problems fmt ratio filename
0:49.20 8690684 B --- -- ---xx flac 0.3485 revivalists2012-12-15d01t01.flac
4:31.71 47971436 B --- -- ---xx flac 0.5405 revivalists2012-12-15d01t02.flac
5:02.02 53277548 B --- -- ---xx flac 0.5329 revivalists2012-12-15d01t03.flac
3:07.73 33158540 B --- -- ---xx flac 0.5044 revivalists2012-12-15d01t04.flac
5:35.07 59110508 B --- -- ---xx flac 0.4964 revivalists2012-12-15d01t05.flac
7:21.72 77961788 B --- -- ---xx flac 0.4664 revivalists2012-12-15d01t06.flac
8:19.35 88105964 B --- -- ---xx flac 0.5428 revivalists2012-12-15d01t07.flac
0:38.67 6860828 B --- -- ---xx flac 0.3782 revivalists2012-12-15d01t08.flac
8:20.36 88284716 B --- -- ---xx flac 0.5121 revivalists2012-12-15d01t09.flac
43:47.08 463422012 B 0.5080 (9 files)





Checksumsrevivalists2012-12-15d01t01.flac:90187db3f2e89de2e46745ebef94c3dd
revivalists2012-12-15d01t02.flac:bf44600cbb51ed5692268674835856a3
revivalists2012-12-15d01t03.flac:89bf1f0a1e83ed79f498c7b3b9281945
revivalists2012-12-15d01t04.flac:a175e4e0b334e1c11b30245a283ac413
revivalists2012-12-15d01t05.flac:cd939f2be65cd670c42ca749ddb38ec8
revivalists2012-12-15d01t06.flac:e1c68bbfebf7af94c57f2cfee7f3b6fc
revivalists2012-12-15d01t07.flac:1abab88de932275322d985d46fb0802e
revivalists2012-12-15d01t08.flac:a1be1c622135243adeab31c53e4f5d16
revivalists2012-12-15d01t09.flac:76afd85258008cf2681d490375978ed1
TypeOther
Last seederLast activity 5:21:52 ago
Size224.50 MB (235407249 Bytes)
Added2012-12-17 21:42:19
Views0
Hits513
Snatched185 times
Upped byzmanatl
Num files10 files
File List
[Hide list]
filenamesizemd5
revivalists2012-12-15d01t07.flac45.61 MBN/A
revivalists2012-12-15d01t09.flac43.12 MBN/A
revivalists2012-12-15d01t06.flac34.68 MBN/A
revivalists2012-12-15d01t05.flac27.98 MBN/A
revivalists2012-12-15d01t03.flac27.07 MBN/A
revivalists2012-12-15d01t02.flac24.73 MBN/A
revivalists2012-12-15d01t04.flac15.95 MBN/A
revivalists2012-12-15d01t01.flac2.89 MBN/A
revivalists2012-12-15d01t08.flac2.47 MBN/A
revivalists2012-12-15.textfile.txt2.1 kBN/A
Peers
[See full list]
1 seeder, 0 leechers = 1 peer total

Add a comment

Tom_of_Mule 2012-12-17 22:19:05
Thanks Z !
Tom
raimax 2012-12-17 22:32:01
Thank you
Blues_Ken 2012-12-17 22:55:34
Thank you Zman
Tomahawk Kid 2012-12-18 03:32:58
Thank you very much!
rnbbird 2012-12-20 18:49:57
Solid NOLA band-thanks for all the ups!
mike1061 2012-12-20 20:42:03
Thanks
Mike

Add a comment


http://etree.org : http://db.etree.org : http://forums.etree.org : http://wiki.etree.org : Legal : RSS Feed

Contents designed & maintained by the etree.org volunteers
1998-2014, etree.org, except where noted. All Rights Reserved.
Read our terms of service and privacy guidelines