bt.etree.org
etree.org Community Bittorrent Tracker
ArtistOther
ShowNickel Bag Of Funk Smith's Olde Bar Atlanta, Georgia 12/13/2012 (Schoeps CCM4V'S FOB)
Report this as
non-Trade-Friendly
Email us
Torrentnickel2012-12-13.flac16.torrent (click to download)
Downloads asnickel2012-12-13.flac16
Info hashea43833816fd7063adf853370f14b516cbccae4a
DescriptionNickel Bag Of Funk
Smith's Olde Bar
Atlanta, Georgia
12/13/2012

Source: Schoeps CCM4V'S(din)>Lunatec V2>Benchmark AD2K>
Sound Devices 722 (24/48)
FOB/DFC/KFC/ZFC/AARP 18' From Stage, 7' High
DSP: Sound Devices 722>Sound Forge 9.0>CD Wave>flac(16)
Recorded By: Z-Man
Seeded By: Z-Man

Disc I

01 ? >
02 OEOEO
03 ? >
04 Signed, Sealed, Delivered >
05 Don't Know What You Came To Do >
06 Crazy
07 ?
08 ?

Flac Fingerprint

nickel2012-12-13d01t01.flac:ff82abe550513f084866265bd3acbae3
nickel2012-12-13d01t02.flac:2d9a832dd1591de544661ef3c2d524ff
nickel2012-12-13d01t03.flac:da7fe3b1a898b85723dd6b4fb9504236
nickel2012-12-13d01t04.flac:f929a99da7ad10333b2a0cc08d08a274
nickel2012-12-13d01t05.flac:7ba6ed5723a742125613281a990402c0
nickel2012-12-13d01t06.flac:50ec1908ae77863ec24f4873f649096c
nickel2012-12-13d01t07.flac:3d365419bef3563d46cae1d0d8f09980
nickel2012-12-13d01t08.flac:700ae3748b6991980b02a0d65ec091a7

Shntool

length expanded size cdr WAVE problems fmt ratio filename
5:47.22 61262588 B --- -- ---xx flac 0.4696 nickel2012-12-13d01t01.flac
3:59.69 42321932 B --- -- ---xx flac 0.5802 nickel2012-12-13d01t02.flac
4:41.16 49606076 B --- -- ---xx flac 0.4956 nickel2012-12-13d01t03.flac
3:01.01 31930796 B --- -- ---xx flac 0.5714 nickel2012-12-13d01t04.flac
2:39.32 28122908 B --- -- ---xx flac 0.4939 nickel2012-12-13d01t05.flac
6:17.47 66613388 B --- -- ---xx flac 0.4496 nickel2012-12-13d01t06.flac
6:09.37 65178668 B --- -- ---xx flac 0.5480 nickel2012-12-13d01t07.flac
6:05.09 64407212 B --- -- ---xx flac 0.4571 nickel2012-12-13d01t08.flac
38:41.08 409443568 B 0.5011 (8 files)

















Checksumsnickel2012-12-13d01t01.flac:ff82abe550513f084866265bd3acbae3
nickel2012-12-13d01t02.flac:2d9a832dd1591de544661ef3c2d524ff
nickel2012-12-13d01t03.flac:da7fe3b1a898b85723dd6b4fb9504236
nickel2012-12-13d01t04.flac:f929a99da7ad10333b2a0cc08d08a274
nickel2012-12-13d01t05.flac:7ba6ed5723a742125613281a990402c0
nickel2012-12-13d01t06.flac:50ec1908ae77863ec24f4873f649096c
nickel2012-12-13d01t07.flac:3d365419bef3563d46cae1d0d8f09980
nickel2012-12-13d01t08.flac:700ae3748b6991980b02a0d65ec091a7
TypeOther
Last seederLast activity 15 days, 05:46:17 ago
Size195.65 MB (205155493 Bytes)
Added2012-12-18 10:16:40
Views0
Hits349
Snatched31 times
Upped byzmanatl
Num files
[See full list]
9 files
Peers
[See full list]
1 seeder, 0 leechers = 1 peer total

Add a comment

cvillehick 2012-12-18 11:11:32
their name is a title of a Digable Planets tune.
bigdaddybflo 2012-12-18 12:13:29
Did Lenny Tape ??

Add a comment


http://etree.org : http://db.etree.org : http://forums.etree.org : http://wiki.etree.org : Legal : RSS Feed

Contents designed & maintained by the etree.org volunteers
1998-2014, etree.org, except where noted. All Rights Reserved.
Read our terms of service and privacy guidelines