bt.etree.org
etree.org Community Bittorrent Tracker
ArtistOther
ShowGeorgia Soul Council Smith's Olde Bar Atlanta, Georgia 12/13/2012 (Schoeps CCM4V'S FOB)
Report this as
non-Trade-Friendly
Email us
Torrentgasoul2012-12-13.flac16.torrent (click to download)
Downloads asgasoul2012-12-13.flac16
Info hash815b3d2cff022d7ea1c58d7aa5866264c5053050
DescriptionGeorgia Soul Council
Smith's Olde Bar
Atlanta, Georgia
12/13/2012

Source: Schoeps CCM4V'S(din)>Lunatec V2>Benchmark AD2K>
Sound Devices 722 (24/48)
FOB/DFC/KFC/ZFC/AARP 18' From Stage, 7' High
DSP: Sound Devices 722>Sound Forge 9.0>CD Wave>flac(16)
Recorded By: Z-Man
Seeded By: Z-Man

Disc I

01 We're Gonna Groove
02 Soul Syrum >
03 Effin' Splendid
04 Hip Shot
05 Sauce
06 ?
07 Bounce This
08 Snaggletooth

Flac Fingerprint

gasoul2012-12-13d01t01.flac:9c3c9ef2f64def0f0475f8760d6b9c48
gasoul2012-12-13d01t02.flac:ec0ebc2df89962b5b3450d48254415ed
gasoul2012-12-13d01t03.flac:7a30a196bc68f25d1067957cfced7fa3
gasoul2012-12-13d01t04.flac:9adf4caabf2e74e8ca4ddf96a992e264
gasoul2012-12-13d01t05.flac:50bcd5e2b1089e3e9712faede3d537fe
gasoul2012-12-13d01t06.flac:470f981bd320b2ff197c206dcea81daa
gasoul2012-12-13d01t07.flac:2a07d04d48d157755c341cb20bd72b1c
gasoul2012-12-13d01t08.flac:64ad3248c2eadb3bcd0371823e3d675e

Shntool

length expanded size cdr WAVE problems fmt ratio filename
3:57.41 41903276 B --- -- ---xx flac 0.5029 gasoul2012-12-13d01t01.flac
4:16.53 45283100 B --- -- ---xx flac 0.4945 gasoul2012-12-13d01t02.flac
6:49.41 72244076 B --- -- ---xx flac 0.5223 gasoul2012-12-13d01t03.flac
7:58.02 84323948 B --- -- ---xx flac 0.5129 gasoul2012-12-13d01t04.flac
8:22.41 88649276 B --- -- ---xx flac 0.5281 gasoul2012-12-13d01t05.flac
8:14.60 87282764 B --- -- ---xx flac 0.4961 gasoul2012-12-13d01t06.flac
5:44.18 60723980 B --- -- ---xx flac 0.5266 gasoul2012-12-13d01t07.flac
6:40.10 70583564 B --- -- ---xx flac 0.4933 gasoul2012-12-13d01t08.flac
52:03.41 550993984 B 0.5106 (8 files)


Checksumsgasoul2012-12-13d01t01.flac:9c3c9ef2f64def0f0475f8760d6b9c48
gasoul2012-12-13d01t02.flac:ec0ebc2df89962b5b3450d48254415ed
gasoul2012-12-13d01t03.flac:7a30a196bc68f25d1067957cfced7fa3
gasoul2012-12-13d01t04.flac:9adf4caabf2e74e8ca4ddf96a992e264
gasoul2012-12-13d01t05.flac:50bcd5e2b1089e3e9712faede3d537fe
gasoul2012-12-13d01t06.flac:470f981bd320b2ff197c206dcea81daa
gasoul2012-12-13d01t07.flac:2a07d04d48d157755c341cb20bd72b1c
gasoul2012-12-13d01t08.flac:64ad3248c2eadb3bcd0371823e3d675e
Visibleno (dead)
TypeOther
Last seederLast activity 189 days, 17:56:44 ago
Size268.32 MB (281357145 Bytes)
Added2012-12-18 10:22:51
Views0
Hits322
Snatched24 times
Upped byzmanatl
Num files
[See full list]
9 files
Seeders
[Hide list]
0 Seeder(s)
Leechers
[Hide list]
0 Leecher(s)

Add a comment

Freeborn_Man 2012-12-18 17:31:28
did u get the hootenany from the variety on Sunday?
LAStubbe 2012-12-18 20:59:31
You're still on tour?

Add a comment


http://etree.org : http://db.etree.org : http://forums.etree.org : http://wiki.etree.org : Legal : RSS Feed

Contents designed & maintained by the etree.org volunteers
1998-2014, etree.org, except where noted. All Rights Reserved.
Read our terms of service and privacy guidelines