bt.etree.org
etree.org Community Bittorrent Tracker
ArtistGrateful Dead
Showgd82-05-22.96331.sbd.miller.t-flac16
Report this as
non-Trade-Friendly
Email us
Torrentgd82-05-22.96331.sbd.miller.sbeok.t-flac16.torrent (click to download)
Downloads asgd82-05-22.96331.sbd.miller.sbeok.t-flac16
Info hash21d56cbf5c83194c2c133e7caeb1ad1d020ae663
db linkhttp://db.etree.org/shn/96331 | Show | Source
DescriptionThis is a tagged version of shnid: 96331

Grateful Dead
May 22, 1982
Greek Theatre, University Of California
Berkeley, CA

Recording Info:
SBD -> Cassette Master (Sony TC-D5M) -> Dat -> CD

Transfer Info:
CD -> Samplitude Professional v10.1 -> FLAC
(3 Discs Audio / 2 Discs FLAC)

All Transfers and Mastering By Charlie Miller
charliemiller87@earthlink.net
December 10, 2008

Patch Info:
(FOB) Unknown Mics -> ? -> CD (shnid=81059) supplies:
He's Gone (8:58 - 9:14)
Drums (0:11 - 11:15)
Space (0:11 - 0:22)

Notes:
-- Set 2 is seamless
-- This is the only circulating source without digital noise reduction
________________________________________________________________________

--Set 1--
101-d1t01 - Jack Straw ->
102-d1t02 - Sugaree
103-d1t03 - Cassidy
104-d1t04 - Tennessee Jed ->
105-d1t05 - New Minglewood Blues
106-d1t06 - Cumberland Blues
107-d1t07 - Lazy Lightnin' ->
108-d1t08 - Supplication
109-d1t09 - Deal

--Set 2--
201-d2t01 - China Cat Sunflower ->
202-d2t02 - I Know You Rider ->
203-d2t03 - Man Smart (Woman Are Smarter)
204-d2t04 - Never Trust a Woman
205-d2t05 - Lost Sailor ->
206-d2t06 - Saint of Circumstance ->
207-d2t07 - He's Gone ->
208-d2t08 - Drums ->
209-d3t01 - Space ->
210-d3t02 - Not Fade Away ->
211-d3t03 - Wharf Rat ->
212-d3t04 - Around & Around ->
213-d3t05 - Good Lovin'

--Encore--
214-d3t06 - U.S. Blues
________________________________________________________________________

Tagging notes:
Show information is embedded within the header of each flac file.
It will display on any player capable of directly playing flac files.
If converted to wav during processing, all tags will be stripped,
however audio data will remain unaffected.
If you must transcode to a lossy format, do so directly Flac > Lossy.
Use ffp to validate audio integrity.
Md5 values will change if tagging is altered.
B. Proctor 2-12-11
________________________________________________________________________

SHNTOOL OUTPUT:
length expanded size cdr WAVE problems filename
4:59.74 52917692 --- -- ----- gd82-05-22d1t01.wav
11:26.62 121156268 --- -- ----- gd82-05-22d1t02.wav
5:50.44 61843532 --- -- ----- gd82-05-22d1t03.wav
7:46.04 82211852 --- -- ----- gd82-05-22d1t04.wav
7:08.39 75590972 --- -- ----- gd82-05-22d1t05.wav
6:12.11 65646716 --- -- ----- gd82-05-22d1t06.wav
3:20.21 35329436 --- -- ----- gd82-05-22d1t07.wav
6:21.35 67290764 --- -- ----- gd82-05-22d1t08.wav
6:36.18 69896780 --- -- ----- gd82-05-22d1t09.wav
5:45.03 60865100 --- -- ----- gd82-05-22d2t01.wav
6:17.33 66580460 --- -- ----- gd82-05-22d2t02.wav
6:32.44 69252332 --- -- ----- gd82-05-22d2t03.wav
6:25.43 68015180 --- -- ----- gd82-05-22d2t04.wav
6:16.36 66411116 --- -- ----- gd82-05-22d2t05.wav
6:28.52 68565548 --- -- ----- gd82-05-22d2t06.wav
12:05.43 127991180 --- -- ----- gd82-05-22d2t07.wav
11:46.65 124691324 --- -- ----- gd82-05-22d2t08.wav
8:12.22 86840588 --- -- ----- gd82-05-22d3t01.wav
10:52.03 115019900 --- -- ----- gd82-05-22d3t02.wav
8:14.64 87292172 --- -- ----- gd82-05-22d3t03.wav
3:43.58 39473660 --- -- ----- gd82-05-22d3t04.wav
8:56.11 94576316 --- -- ----- gd82-05-22d3t05.wav
5:05.03 53809100 --- -- ----- gd82-05-22d3t06.wav
166:24.38 1761267988 B (totals for 23 files)
Checksumsgd82-05-22d1t01.flac:701fca7d3046e8c72f4534ec5d6b390a
gd82-05-22d1t02.flac:36468adbeee90365a5ee27dcd15eefc3
gd82-05-22d1t03.flac:1a2a6d86df8a1a675518739c39f7f919
gd82-05-22d1t04.flac:d41dfa6453f2a57a7790811d0fbad599
gd82-05-22d1t05.flac:86d6bb02a10ee13f4ca39748ba24c9b4
gd82-05-22d1t06.flac:337bcc8b6ce839806ef3f7e0253676e9
gd82-05-22d1t07.flac:d6fefec980497b8d40b39150e6096bec
gd82-05-22d1t08.flac:1ce639749a2dfef26dcadadaf46fc18c
gd82-05-22d1t09.flac:d00790aa8201301e81341c329e03c129
gd82-05-22d2t01.flac:aa34028b90659dcb4b30ee27751541b1
gd82-05-22d2t02.flac:5b0408df7860a5a232f149deaa4b82a9
gd82-05-22d2t03.flac:e23f1a6cbb80775974fe1ee8d52c7ae4
gd82-05-22d2t04.flac:cbef92945a2b880179ecb5e4dab531cf
gd82-05-22d2t05.flac:b0f3c0d50f938834445ff1397166cebd
gd82-05-22d2t06.flac:5e1da0f32d5ae7d95f647f389d1bbe27
gd82-05-22d2t07.flac:eb2dbbfbeba17d2b9d90647fe4275f3f
gd82-05-22d2t08.flac:4c423b39d84c22d7a88f0d7856a57533
gd82-05-22d3t01.flac:2f920f5ccb6309a3405885b03c70393a
gd82-05-22d3t02.flac:dd35c03019b60808e41cdf7d871f17fe
gd82-05-22d3t03.flac:92115ac223cdafce2a984fbff07b3a37
gd82-05-22d3t04.flac:910cf5721e8531f23782e2aafad03896
gd82-05-22d3t05.flac:823e55f0fc0281908668a4c2d2ec73fa
gd82-05-22d3t06.flac:159eab50f5c1ee350613789b76f76bec
TypeGrateful Dead
Last seederLast activity 17:28 ago
Size1.070 GB (1148874180 Bytes)
Added2012-12-21 09:20:30
Views0
Hits469
Snatched285 times
Upped bygermain
Num files26 files
File List
[Hide list]
filenamesizemd5
gd82-05-22.96331.tagged.md51.4 kBN/A
gd82-05-22.96331.txt3.7 kBN/A
gd82-05-22.ffp1.2 kBN/A
gd82-05-22d1t01.flac32.99 MBN/A
gd82-05-22d1t02.flac74.46 MBN/A
gd82-05-22d1t03.flac39.16 MBN/A
gd82-05-22d1t04.flac52.76 MBN/A
gd82-05-22d1t05.flac49.34 MBN/A
gd82-05-22d1t06.flac42.11 MBN/A
gd82-05-22d1t07.flac23.17 MBN/A
gd82-05-22d1t08.flac44.30 MBN/A
gd82-05-22d1t09.flac45.88 MBN/A
gd82-05-22d2t01.flac39.07 MBN/A
gd82-05-22d2t02.flac43.50 MBN/A
gd82-05-22d2t03.flac44.58 MBN/A
gd82-05-22d2t04.flac41.26 MBN/A
gd82-05-22d2t05.flac40.36 MBN/A
gd82-05-22d2t06.flac44.34 MBN/A
gd82-05-22d2t07.flac79.36 MBN/A
gd82-05-22d2t08.flac71.71 MBN/A
gd82-05-22d3t01.flac46.33 MBN/A
gd82-05-22d3t02.flac71.26 MBN/A
gd82-05-22d3t03.flac52.89 MBN/A
gd82-05-22d3t04.flac24.68 MBN/A
gd82-05-22d3t05.flac58.26 MBN/A
gd82-05-22d3t06.flac33.88 MBN/A
Peers
[See full list]
5 seeders, 0 leechers = 5 peers total

Add a comment

jerome70 2012-12-31 21:01:07
Never Trust a Woman because Woman Are Smarter...thanx 4 this 1!
Pisces 2014-07-12 23:37:05
Thanks!

Add a comment


http://etree.org : http://db.etree.org : http://forums.etree.org : http://wiki.etree.org : Legal : RSS Feed

Contents designed & maintained by the etree.org volunteers
1998-2014, etree.org, except where noted. All Rights Reserved.
Read our terms of service and privacy guidelines