bt.etree.org
etree.org Community Bittorrent Tracker
ArtistGrateful Dead
Showgd82-05-22.101450.mtx.seamons.t-flac16
Report this as
non-Trade-Friendly
Email us
Torrentgd82-05-22.101450.mtx.seamons.ht55.t-flac16.torrent (click to download)
Downloads asgd82-05-22.101450.mtx.seamons.ht55.t-flac16
Info hash62e6f6c07d7da52a2f94873d5683c8fbb5b730b9
db linkhttp://db.etree.org/shn/101450 | Show | Source
DescriptionThis is a tagged version of shnid: 101450

Grateful Dead
May 22, 1982
Greek Theatre, U. of California
Berkeley, CA

Jerry Garcia - Lead Guitar, Vocals
Mickey Hart - Drums
Bill Kreutzmann - Drums
Phil Lesh - Electric Bass, Vocals
Brent Mydland - Keyboards, Vocals
Bob Weir - Rhythm Guitar, Vocals

*Matrix*

-----------------------------------------------------------------
SBD (shnid=96331):

Recording Info:
SBD -> Cassette Master (Sony TC-D5M) -> Dat -> CD

Transfer Info:
CD -> Samplitude Professional v10.1 -> FLAC
(3 Discs Audio / 2 Discs FLAC)

All Transfers and Mastering By Charlie Miller
charliemiller87@earthlink.net
December 10, 2008

[Cuts:]

He's Gone (8:58 - 9:14)
Drums (0:11 - 11:15)
Space (0:11 - 0:22)

-----------------------------------------------------------------
AUD (shnid=101328):

Recording info:
2 Nakamichi 300 mics > Sony TC D-5m
(Dolby B)(FOB on stand)(Maxell UDXL-IIS 90)

Playback, Editing, Preparation info:
Nakamichi Dragon (Dolby B decoded) > Panasonic SV 3700 DAT (A/D conversion 44.1)
(HP data cartridge) > Apple G4 (RME interface)(Peak 5 editing) > Xact

-----------------------------------------------------------------
Thank you to Charlie Miller for the SBD transfer,
and to musigny23 for recording the show.

Matrix by Hunter Seamons using Final Cut Pro (FLAC>AIFF>Final Cut>WAV>FLAC)
September 18, 2009
________________________________________________________________________________

--Set 1--
101-d1t01 - Jack Straw ->
102-d1t02 - Sugaree
103-d1t03 - Cassidy
104-d1t04 - Tennessee Jed ->
105-d1t05 - New Minglewood Blues
106-d1t06 - Cumberland Blues
107-d1t07 - Lazy Lightning ->
108-d1t08 - Supplication
109-d1t09 - Deal

--Set 2--
201-d2t01 - China Cat Sunflower ->
202-d2t02 - I Know You Rider ->
203-d2t03 - Man Smart (Women Are Smarter)
204-d2t04 - Never Trust a Woman
205-d2t05 - Lost Sailor ->
206-d2t06 - Saint of Circumstance ->
207-d2t07 - He's Gone ->
208-d2t08 - Drums ->
209-d3t01 - Space ->
210-d3t02 - Not Fade Away ->
211-d3t03 - Wharf Rat ->
212-d3t04 - Around & Around ->
213-d3t05 - Good Lovin'

--Encore--
214-d3t06 - U.S. Blues
________________________________________________________________________________

Tagging notes:
Show information is embedded within the header of each flac file.
It will display on any player capable of directly playing flac files.
If converted to wav during processing, all tags will be stripped,
however audio data will remain unaffected.
If you must transcode to a lossy format, do so directly Flac > Lossy.
Use ffp to validate audio integrity.
Md5 values will change if tagging is altered.
B. Proctor 2-13-11
________________________________________________________________________________


length expanded size cdr WAVE problems fmt ratio filename
5:09.43 54608780 B --- -- ---xx gd82-05-22d1t01.flac
11:26.61 121153916 B --- -- ---xx gd82-05-22d1t02.flac
5:47.56 61342556 B --- -- ---xx gd82-05-22d1t03.flac
7:44.70 82014284 B --- -- ---xx gd82-05-22d1t04.flac
7:13.58 76517660 B --- -- ---xx gd82-05-22d1t05.flac
6:10.17 65308028 B --- -- ---xx gd82-05-22d1t06.flac
3:20.18 35322380 B --- -- ---xx gd82-05-22d1t07.flac
6:21.31 67281356 B --- -- ---xx gd82-05-22d1t08.flac
6:33.17 69365228 B --- -- ---xx gd82-05-22d1t09.flac
5:53.74 62443292 B --- -- ---xx gd82-05-22d2t01.flac
6:17.41 66599276 B --- -- ---xx gd82-05-22d2t02.flac
6:33.12 69353468 B --- -- ---xx gd82-05-22d2t03.flac
6:25.34 67994012 B --- -- ---xx gd82-05-22d2t04.flac
6:16.38 66415820 B --- -- ---xx gd82-05-22d2t05.flac
6:28.62 68589068 B --- -- ---xx gd82-05-22d2t06.flac
12:05.62 128035868 B --- -- ---xx gd82-05-22d2t07.flac
12:03.39 127628972 B --- -- ---xx gd82-05-22d2t08.flac
8:13.39 87056972 B --- -- ---xx gd82-05-22d3t01.flac
10:52.04 115022252 B --- -- ---xx gd82-05-22d3t02.flac
8:14.60 87282764 B --- -- ---xx gd82-05-22d3t03.flac
3:43.59 39476012 B --- -- ---xx gd82-05-22d3t04.flac
8:30.06 89978156 B --- -- ---xx gd82-05-22d3t05.flac
5:12.09 55058012 B --- -- ---xx gd82-05-22d3t06.flac
166:39.10 1763848132 B 0.6240 (23 files)
Checksumsgd82-05-22d1t01.flac:b8c9b2b7a5da19e58ae9a90a221c4253
gd82-05-22d1t02.flac:ec1d962c540b52270b407af1a3d6ca80
gd82-05-22d1t03.flac:06562a0fd40e1f75ed401f45eea0e155
gd82-05-22d1t04.flac:8f6839cb2efd67225e3cc0b02baaea62
gd82-05-22d1t05.flac:27a88df8272e3d190a5c0ffca626c9a0
gd82-05-22d1t06.flac:cdd443c6d6238639e21086cf08a6a3df
gd82-05-22d1t07.flac:0923510a9df693c4dda28eb801c1da21
gd82-05-22d1t08.flac:c9f05837bb48d4e44fd912aba29497ef
gd82-05-22d1t09.flac:494f39d2a1956b74a40435271cf33a3d
gd82-05-22d2t01.flac:7f70ae1b6b22a87a22882b4186f69f0a
gd82-05-22d2t02.flac:8c198901e3777a91f6c4b7f2cf680a19
gd82-05-22d2t03.flac:4cbb43b49b0608fb45d3610ef478aa1c
gd82-05-22d2t04.flac:42dbc07ce161004abcc04adf56172351
gd82-05-22d2t05.flac:eeee1f324ad0fe670a751176e430a981
gd82-05-22d2t06.flac:82034df515ccf5793434c2459b76500d
gd82-05-22d2t07.flac:7e6d74abf3e83db61e2444a69ef69dfd
gd82-05-22d2t08.flac:b6598a3a908699840c8a1ce24a445007
gd82-05-22d3t01.flac:f5cebee3919c1cbcd4e65648c0a075fa
gd82-05-22d3t02.flac:6ef85ebba9e901972d9e0a9b2a6ea701
gd82-05-22d3t03.flac:74795d3429bbe41db9e2146c28feae44
gd82-05-22d3t04.flac:08d43651adb818b744524086313d3905
gd82-05-22d3t05.flac:7f01414c006facd7fb1d66c1769b1cdc
gd82-05-22d3t06.flac:b3ce116a5756a9fd1799db6140de44cf
TypeGrateful Dead
Last seederLast activity 9:52 ago
Size1.029 GB (1105069205 Bytes)
Added2012-12-21 09:26:36
Views0
Hits483
Snatched291 times
Upped bygermain
Num files
[See full list]
33 files
Seeders
[Hide list]
2 Seeder(s)
ip:portclient
version
ul
bytes
dl
bytes
ratiocompleteul
rate
dl
rate
time
connected
time
left
idle
85.211.141.xxx:24874 4.72 MB 0 B 100.00%
0 B/s N/A 18 days, 16:56:54 N/A 9:52
24.61.230.xxx:6881 Azureus 5.3.0.0 0 B 0 B N/A 100.00%
N/A N/A 8:17:39 N/A 19:03
0 of 2 firewalled (0%) 100.00%
N/AN/A
Leechers
[Hide list]
0 Leecher(s)

Add a comment

hseamons 2012-12-21 11:56:12
http://fc00.deviantart.net/fs70/f/2010/235/e/0/HT_Vol__55__Front_1_by_hseamons.jpg

http://fc01.deviantart.net/fs70/f/2010/235/d/c/HT_Vol__55__Front_2_by_hseamons.jpg

http://fc08.deviantart.net/fs71/f/2010/235/4/c/HT_Vol__55__Back_by_hseamons.jpg

http://fc01.deviantart.net/fs70/f/2010/235/1/c/HT_Vol__55__Booklet_Cover_by_hseamons.jpg

http://fc05.deviantart.net/fs70/f/2010/235/2/5/HT_Vol__55__Booklet_Contents_by_hseamons.jpg


http://www.facebook.com/GratefulDeadTrix
92gli 2012-12-21 16:53:16
This is my favorite of all your matrixs. And an amazingly polished, yet energetic, 80s performance (next night is too).

Love the guy that keeps yelling "cumberland" between songs until jerry plays it, and then yells thanks afterwards. And the guys that "woo!" right at the end of jerry's blazing deal solo. (that solo has brought me to tears of joy on a few occasions) :o)
jerome70 2012-12-21 19:32:19
thanX! ticket stub from that day says gen adm $12...nice,i'll take one & a time machine please?
alpine7784 2012-12-22 10:15:46
One of my favorite first sets of all time. For me, the definitive versions of Good Times Blues and Supplication. Brent's playing on this set is just exactly perfect.

Thanks for the matrix!
WRBzWorld 2012-12-22 14:59:38
Thanks for the Christmas gift.
Pisces 2014-07-12 23:37:40
Thanks!

Add a comment


http://etree.org : http://db.etree.org : http://forums.etree.org : http://wiki.etree.org : Legal : RSS Feed

Contents designed & maintained by the etree.org volunteers
1998-2014, etree.org, except where noted. All Rights Reserved.
Read our terms of service and privacy guidelines