bt.etree.org
etree.org Community Bittorrent Tracker
ArtistGrateful Dead
Showgd82-05-23.96332.sbd.miller.t-flac16
Report this as
non-Trade-Friendly
Email us
Torrentgd82-05-23.96332.sbd.miller.sbeok.t-flac16.torrent (click to download)
Downloads asgd82-05-23.96332.sbd.miller.sbeok.t-flac16
Info hashf4399c1c59a0ff49172b612b21f948ffc5950bed
db linkhttp://db.etree.org/shn/96332 | Show | Source
DescriptionThis is a tagged version of shnid: 96332

Grateful Dead
May 23, 1982
Greek Theatre, University Of California
Berkeley, CA

Recording Info:
SBD -> Cassette Master (Sony TC-D5M) -> Dat -> CD

Transfer Info:
CD -> Samplitude Professional v10.1 -> FLAC
(3 Discs Audio / 2 Discs FLAC)

All Transfers and Mastering By Charlie Miller
charliemiller87@earthlink.net
December 10, 2008

Notes:
-- Set 2 disc change is seamless
-- This is the only circulating source without digital noise reduction
__________________________________________________________________________

--Set 1--
101-d1t01 - Shakedown Street ->
102-d1t02 - The Promised Land
103-d1t03 - They Love Each Other
104-d1t04 - Mama Tried ->
105-d1t05 - Mexicali Blues
106-d1t06 - Loser ->
107-d1t07 - Little Red Rooster
108-d1t08 - Ramble On Rose
109-d1t09 - Let It Grow

--Set 2--
201-d2t01 - Scarlet Begonias ->
202-d2t02 - Fire on the Mountain
203-d2t03 - Samson & Delilah
204-d2t04 - Ship of Fools
205-d2t05 - Estimated Prophet ->
206-d2t06 - Eyes of the World ->
207-d2t07 - Drums ->
208-d3t01 - Space ->
209-d3t02 - The Other One ->
210-d3t03 - Stella Blue ->
211-d3t04 - I Need a Miracle ->
212-d3t05 - Casey Jones

--Encore--
213-d3t06 - (I Can't Get No) Satisfaction ->
214-d3t07 - Brokedown Palace
__________________________________________________________________________

Tagging notes:
Show information is embedded within the header of each flac file.
It will display on any player capable of directly playing flac files.
If converted to wav during processing, all tags will be stripped,
however audio data will remain unaffected.
If you must transcode to a lossy format, do so directly Flac > Lossy.
Use ffp to validate audio integrity.
Md5 values will change if tagging is altered.
B. Proctor 2-13-11
__________________________________________________________________________

SHNTOOL OUTPUT:
length expanded size cdr WAVE problems filename
13:13.71 140052236 --- -- ----- gd82-05-23d1t01.wav
4:15.70 45146684 --- -- ----- gd82-05-23d1t02.wav
8:13.67 87122828 --- -- ----- gd82-05-23d1t03.wav
2:24.01 25403996 --- -- ----- gd82-05-23d1t04.wav
4:37.16 48900476 --- -- ----- gd82-05-23d1t05.wav
6:57.45 73664684 --- -- ----- gd82-05-23d1t06.wav
7:50.65 83060924 --- -- ----- gd82-05-23d1t07.wav
6:59.13 73942220 --- -- ----- gd82-05-23d1t08.wav
11:14.01 118895996 --- -- ----- gd82-05-23d1t09.wav
12:28.09 131968412 --- -- ----- gd82-05-23d2t01.wav
9:36.74 101780492 --- -- ----- gd82-05-23d2t02.wav
7:35.55 80391404 --- -- ----- gd82-05-23d2t03.wav
7:32.48 79845740 --- -- ----- gd82-05-23d2t04.wav
11:46.05 124550204 --- -- ----- gd82-05-23d2t05.wav
9:02.14 95641772 --- -- ----- gd82-05-23d2t06.wav
9:41.24 102544892 --- -- ----- gd82-05-23d2t07.wav
6:16.28 66392300 --- -- ----- gd82-05-23d3t01.wav
12:21.46 130820636 --- -- ----- gd82-05-23d3t02.wav
7:34.49 80200892 --- -- ----- gd82-05-23d3t03.wav
4:30.53 47752700 --- -- ----- gd82-05-23d3t04.wav
5:39.46 59907836 --- -- ----- gd82-05-23d3t05.wav
6:08.32 64990508 --- -- ----- gd82-05-23d3t06.wav
5:33.54 58868252 --- -- ----- gd82-05-23d3t07.wav
181:34.61 1921846084 B (totals for 23 files)
Checksumsgd82-05-23d1t01.flac:b19283cf2779c0c8753f105619509024
gd82-05-23d1t02.flac:f7180ddd3612046577ebf856f2a213be
gd82-05-23d1t03.flac:45ed867f1d0d03dcdde848361e973ca7
gd82-05-23d1t04.flac:707d01afd536161919efb97d3c1d2133
gd82-05-23d1t05.flac:3f75c502153ab7db66aca4b867870093
gd82-05-23d1t06.flac:2f1315bbc81b672d7081c5135736fe8c
gd82-05-23d1t07.flac:f49684ecf4ed7cebcd44570ec62ca5cb
gd82-05-23d1t08.flac:108814e30466d9520d4ef819fcd12d58
gd82-05-23d1t09.flac:a0c590d3660fc12cffeef4536d1b13f0
gd82-05-23d2t01.flac:af99c97bc04ed19b02fe1f76247bd65a
gd82-05-23d2t02.flac:73ac148830c379f393e45f98314549fc
gd82-05-23d2t03.flac:bdc3be31868def467115b5706e9bf1d5
gd82-05-23d2t04.flac:ececf49480e1b50002eae4f0c15ae0fe
gd82-05-23d2t05.flac:976f4d60d86d21e82de45278da1fca16
gd82-05-23d2t06.flac:f6569aa3d2ad1c89eb7d7c83dd516dbd
gd82-05-23d2t07.flac:36fddaccfdbf4f1082be5302326e189a
gd82-05-23d3t01.flac:17fae9e4f5ac571192ce6850ad2ca643
gd82-05-23d3t02.flac:e27ed595cec858be007d3ad9a7398f90
gd82-05-23d3t03.flac:1fdae43a475c4f21bd0c75a43b0828a3
gd82-05-23d3t04.flac:0ac41c037384b2ac7c9bd9171885e0b8
gd82-05-23d3t05.flac:005f85e34709c6871201d5676c3386e8
gd82-05-23d3t06.flac:ecc0ac55e984ee76020f04124f768e74
gd82-05-23d3t07.flac:65dc3c7a4bfc1e621efb29266c4a264b
TypeGrateful Dead
Last seederLast activity 5:33 ago
Size1.169 GB (1254944142 Bytes)
Added2012-12-22 08:02:24
Views0
Hits499
Snatched292 times
Upped bygermain
Num files
[See full list]
26 files
Seeders
[Hide list]
2 Seeder(s)
ip:portclient
version
ul
bytes
dl
bytes
ratiocompleteul
rate
dl
rate
time
connected
time
left
idle
66.67.61.xxx:50097 200.12 MB 0 B 100.00%
0 B/s N/A 3 days, 16:27:40 N/A 24:36
162.197.121.xxx:6881 0 B 0 B N/A 100.00%
N/A N/A 3 days, 03:41:18 N/A 5:33
0 of 2 firewalled (0%) 100.00%
N/AN/A
Leechers
[Hide list]
0 Leecher(s)

Add a comment

ErnieLuckman 2012-12-23 10:49:12
thanks! charlie still recording/producing for other bands? it'd be cool if gdp/ or who ever is handling it now (maybe that offshoot of rhino??)opened up the vaults for him to master one, and then put it out on vinyl. sheeeit, id buy it! maybe get some air-play for it as well on one of the community radio stations, so eventually everybody would hear it ;)
Pisces 2014-07-13 09:31:46
Thanks!

Add a comment


http://etree.org : http://db.etree.org : http://forums.etree.org : http://wiki.etree.org : Legal : RSS Feed

Contents designed & maintained by the etree.org volunteers
1998-2014, etree.org, except where noted. All Rights Reserved.
Read our terms of service and privacy guidelines