bt.etree.org
etree.org Community Bittorrent Tracker
ArtistGrateful Dead
Showgd82-05-23.102124.mtx.seamons.t-flac16
Report this as
non-Trade-Friendly
Email us
Torrentgd82-05-23.102124.mtx.seamons.ht56.t-flac16.torrent (click to download)
Downloads asgd82-05-23.102124.mtx.seamons.ht56.t-flac16
Info hash3fea4b6234bd8bf2ef4252f7e739ef0eb4451c74
db linkhttp://db.etree.org/shn/102124 | Show | Source
DescriptionThis is a tagged version shnid: 102124

Grateful Dead
Greek Theatre, U. of California
Berkeley, CA
May 23, 1982

Jerry Garcia - Lead Guitar, Vocals
Mickey Hart - Drums
Bill Kreutzmann - Drums
Phil Lesh - Electric Bass, Vocals
Brent Mydland - Keyboards, Vocals
Bob Weir - Rhythm Guitar, Vocals

*Matrix*
-----------------------------------------------------------------
SBD (shnid=96332):
Recording Info:
SBD -> Cassette Master (Sony TC-D5M) -> Dat -> CD

Transfer Info:
CD -> Samplitude Professional v10.1 -> FLAC
(3 Discs Audio / 2 Discs FLAC)

All Transfers and Mastering By Charlie Miller
charliemiller87@earthlink.net
December 10, 2008

[1 minute cut in Estimated, and some of Drums>Space]
-----------------------------------------------------------------

AUD (shnid=101955):
2 Nakamichi CM 300 mics > SONY TC D-5m(Dolby B)
(TDK AD-X 90 set 1)(Maxell UDXLII-S, MX 90 set 2)

Plybck:
Nakamichi Dragon (Dolby B decoded) > Apple G4
(RME DIGI PAD 96 A/D conversion 44.1k)(PEAK editing) > Xact

Short flip or tape change cuts at the beginnings of
Little Red Rooster @ 04.866 sec.
Eyes of the World @ 09.722 sec.
Stella Blue @ 11.902 sec.
Casey Jones @ 05.253 sec.
-----------------------------------------------------------------

Thank you to Charlie Miller for the SBD transfer,and to musigny23
for recording the show.

Matrix by Hunter Seamons
using Final Cut Pro (FLAC>AIFF>Final Cut>WAV>FLAC)
October 20, 2009
_______________________________________________________________________

--Set 1--
101-d1t01 - Tuning
102-d1t02 - Shakedown Street ->
103-d1t03 - The Promised Land
104-d1t04 - They Love Each Other
105-d1t05 - Mama Tried ->
106-d1t06 - Mexicali Blues
107-d1t07 - Loser ->
108-d1t08 - Little Red Rooster
109-d1t09 - Ramble on Rose
110-d1t10 - Let It Grow

--Set 2--
201-d2t01 - Scarlet Begonias ->
202-d2t02 - Fire on the Mountain
203-d2t03 - Samson & Delilah
204-d2t04 - Ship of Fools
205-d2t05 - Estimated Prophet ->
206-d2t06 - Eyes of the World ->
207-d2t07 - Drums* ->
208-d3t01 - Space* ->
209-d3t02 - The Other One ->
210-d3t03 - Stella Blue ->
211-d3t04 - I Need a Miracle ->
212-d3t05 - Casey Jones

--Encore--
213-d3t06 - (I Can't Get No) Satisfaction ->
214-d3t07 - Brokedown Palace

*with Harley Davidson Motorcycle
_______________________________________________________________________

Notes:
1) From Drums>Space through the end of the show, over fifty (50)
minuscule dropouts occur in the soundboard, more frequently in
Other One and Miracle. Because of the very minuscule time frame
of some of these, I was able to smooth over them without fading
out the SBD (by adjusting speeds or making very small cuts/additions).
Most of them, however, required me to fade out the SBD for less than
a second, usually. Most of these moments are pretty smooth sounding
and not real noticeable, but some can be slightly distracting because
of the quick, AUD-only transition.

2) The original AUD tape cuts were preserved when only the AUD plays
(between songs), instead of being smoothed out, or cross-faded.
Sometimes I prefer this.

3) A quick shift in the SBD mix occurs at 0:44 and 0:53 of Other One,
where it cuts to a more "distant" sound for a moment, then comes back.
_______________________________________________________________________

Tagging notes:
Show information is embedded within the header of each flac file.
It will display on any player capable of directly playing flac files.
If converted to wav during processing, all tags will be stripped,
however audio data will remain unaffected.
If you must transcode to a lossy format, do so directly Flac > Lossy.
Use ffp to validate audio integrity.
Md5 values will change if tagging is altered.
B. Proctor 2-13-11
_______________________________________________________________________

length expanded size cdr WAVE problems fmt ratio filename
0:48.58 8603660 B --- -- ---xx gd82-05-23d1t01.flac
13:14.27 140125148 B --- -- ---xx gd82-05-23d1t02.flac
4:28.65 47428124 B --- -- ---xx gd82-05-23d1t03.flac
8:21.36 88461116 B --- -- ---xx gd82-05-23d1t04.flac
2:23.73 25396940 B --- -- ---xx gd82-05-23d1t05.flac
4:59.35 52825964 B --- -- ---xx gd82-05-23d1t06.flac
6:57.44 73662332 B --- -- ---xx gd82-05-23d1t07.flac
8:34.03 90676700 B --- -- ---xx gd82-05-23d1t08.flac
6:59.17 73951628 B --- -- ---xx gd82-05-23d1t09.flac
11:14.23 118947740 B --- -- ---xx gd82-05-23d1t10.flac
12:31.51 132596396 B --- -- ---xx gd82-05-23d2t01.flac
9:36.21 101655836 B --- -- ---xx gd82-05-23d2t02.flac
7:33.14 79942172 B --- -- ---xx gd82-05-23d2t03.flac
7:32.41 79829276 B --- -- ---xx gd82-05-23d2t04.flac
12:36.49 133473692 B --- -- ---xx gd82-05-23d2t05.flac
9:02.14 95641772 B --- -- ---xx gd82-05-23d2t06.flac
9:52.57 104562908 B --- -- ---xx gd82-05-23d2t07.flac
6:33.19 69369932 B --- -- ---xx gd82-05-23d3t01.flac
12:23.08 131084060 B --- -- ---xx gd82-05-23d3t02.flac
7:34.67 80243228 B --- -- ---xx gd82-05-23d3t03.flac
4:30.73 47799740 B --- -- ---xx gd82-05-23d3t04.flac
5:39.48 59912540 B --- -- ---xx gd82-05-23d3t05.flac
6:08.35 64997564 B --- -- ---xx gd82-05-23d3t06.flac
5:34.46 59025836 B --- -- ---xx gd82-05-23d3t07.flac
185:12.24 1960214304 B 0.6265 (24 files)
Checksumsgd82-05-23d1t01.flac:f9155950efb21e2012a97f877a44765c
gd82-05-23d1t02.flac:8e4b10e70c216119e0bf35f08e6205d3
gd82-05-23d1t03.flac:e27dd7538f515c02e5396053318ec9c3
gd82-05-23d1t04.flac:20ede64c8c3c07d88e79f2ceccaceb6d
gd82-05-23d1t05.flac:e9df139988723749788dd4b33fc77edb
gd82-05-23d1t06.flac:04fc0ee482e90a9881d116d0ef592160
gd82-05-23d1t07.flac:76dfc854905b1ff5f5fde71fa4bea6e6
gd82-05-23d1t08.flac:57faca90b2fbc39ee5dd8bff4ccb7ba6
gd82-05-23d1t09.flac:d968b2ec02501bfd8eab70b14d9bdcbb
gd82-05-23d1t10.flac:b1a464d39bea75b59d44461dbc2ae9c8
gd82-05-23d2t01.flac:e16c946af0b54f5d76113c794fe83538
gd82-05-23d2t02.flac:93dbe89a2a0028ff28b9b260f6e428b0
gd82-05-23d2t03.flac:601c4e5ac0ca142f2c39d76f490977cb
gd82-05-23d2t04.flac:fd9e275e2e7b7046e5555a083a21c62a
gd82-05-23d2t05.flac:abbb23de509d655f343db98aa3294a32
gd82-05-23d2t06.flac:f402adc2a1c9e976a5d10408e6f87f51
gd82-05-23d2t07.flac:1393038642a31117cfbca7cfdcec4855
gd82-05-23d3t01.flac:87921522e67fad170c60051eeae9469f
gd82-05-23d3t02.flac:66ce184113df0509febe54f4f703e27e
gd82-05-23d3t03.flac:0953fcbf2c8f900d1f7885c847adc809
gd82-05-23d3t04.flac:74c1d09d8e78bc0b03b5bcedfe156333
gd82-05-23d3t05.flac:a128c628f26dad94dc3c40ca4aa51bb7
gd82-05-23d3t06.flac:24525e00530ddbd54bef782db785ee88
gd82-05-23d3t07.flac:6f732d544e60658b526e1ef3fbbbad9c
TypeGrateful Dead
Last seederLast activity 11:45 ago
Size1.146 GB (1230452482 Bytes)
Added2012-12-22 08:07:11
Views0
Hits501
Snatched290 times
Upped bygermain
Num files
[See full list]
33 files
Peers
[See full list]
2 seeders, 0 leechers = 2 peers total

Add a comment

pgubbiom 2012-12-22 09:22:25
Any chance of getting the lovely artwork that usually accompanies these gems? Any chance for those of us who do not wish to sign up for Facebook? In any case, thank you again.
germain 2012-12-22 09:52:29
The artwork is in the torrent folder.
hseamons 2012-12-22 12:24:53
http://fc00.deviantart.net/fs70/f/2010/242/4/f/ht_vol__56__front_1_by_hseamons-d2xmuev.jpg

http://fc03.deviantart.net/fs70/f/2010/242/e/b/ht_vol__56__front_2_by_hseamons-d2xmv0q.jpg

http://fc02.deviantart.net/fs71/f/2010/242/0/f/ht_vol__56__back_by_hseamons-d2xmv3t.jpg

http://fc09.deviantart.net/fs70/f/2010/242/2/3/ht_vol__56__booklet_cover_by_hseamons-d2xmv6y.jpg

http://fc06.deviantart.net/fs71/f/2010/242/1/2/ht_vol__56__booklet_contents_by_hseamons-d2xmvce.jpg


http://hseamons.deviantart.com/


http://www.facebook.com/GratefulDeadTrix
1in10,000 2012-12-22 14:11:59
Was close enough to see traces of a white powdery substance on Jerry's shirt when he came back onstage after the drum break. Woman next to me said, "Looks like Jerry missed his nose..."
WRBzWorld 2012-12-22 15:27:14
thank you!
Pisces 2014-07-13 09:33:07
Thanks!

Add a comment


http://etree.org : http://db.etree.org : http://forums.etree.org : http://wiki.etree.org : Legal : RSS Feed

Contents designed & maintained by the etree.org volunteers
1998-2014, etree.org, except where noted. All Rights Reserved.
Read our terms of service and privacy guidelines