bt.etree.org
etree.org Community Bittorrent Tracker
ArtistOther
ShowJason Isbell & The 400 Unit - 2012-12-21 - Mercy Lounge - Nashville, TN. *MK4V*
Report this as
non-Trade-Friendly
Email us
Torrentisbell2012-12-21.mk4v.flac16.torrent (click to download)
Downloads asisbell2012-12-21.mk4v.flac16
Info hash4a6769ff4eb292944da897c713ff8953829c4310
DescriptionJason Isbell & The 400 Unit
2012-12-21
Mercy Lounge
Nashville, TN.


***16bit Source***


Source: Schoeps MK4V > KC5 > CMC6 > Sound Devices 722 (24bit/48kHz)
Location: FOB / SLOC / 8ft
Transfer: 744T > HDD > Wavelab 6.1 (DSP/Fades/Re-Sampler192/MBit+ Dither) > CDWave > TLH > FLAC (8)
Taped, Transferred & Seeded by Martin Medley


One Set:

01. Decoration Day
02. Go It Alone
03. Tour Of Duty
04. Dress Blues
05. Try
06. The Magician
07. Outfit
08. Goddamn Lonely Love
09. Heart On A String
10. Hey Pocky Way
11. Corrina
12. Danko/Manuel
13. In A Razor Town
14. Alabama Pines
15. Never Gonna Change

Encore:

16. Codeine
17. Streetlights
18. Like A Hurricane



shntool info:

length expanded size cdr WAVE problems fmt ratio filename
6:49.44 72251132 B --- -- ---xx flac 0.6026 isbell2012-12-21t01.flac
5:25.02 57334748 B --- -- ---xx flac 0.6156 isbell2012-12-21t02.flac
3:40.02 38812748 B --- -- ---xx flac 0.5793 isbell2012-12-21t03.flac
5:50.49 61855292 B --- -- ---xx flac 0.5453 isbell2012-12-21t04.flac
8:23.20 88776284 B --- -- ---xx flac 0.6564 isbell2012-12-21t05.flac
7:29.03 79210700 B --- -- ---xx flac 0.5449 isbell2012-12-21t06.flac
5:23.34 57057212 B --- -- ---xx flac 0.6069 isbell2012-12-21t07.flac
7:16.47 77020988 B --- -- ---xx flac 0.5647 isbell2012-12-21t08.flac
4:30.59 47766812 B --- -- ---xx flac 0.6387 isbell2012-12-21t09.flac
7:48.43 82656380 B --- -- ---xx flac 0.6305 isbell2012-12-21t10.flac
3:33.63 37721420 B --- -- ---xx flac 0.6448 isbell2012-12-21t11.flac
9:36.62 101752268 B --- -- ---xx flac 0.5491 isbell2012-12-21t12.flac
5:06.51 54098396 B --- -- ---xx flac 0.4615 isbell2012-12-21t13.flac
4:40.14 49424972 B --- -- ---xx flac 0.5555 isbell2012-12-21t14.flac
10:05.49 106837292 B --- -- ---xx flac 0.6081 isbell2012-12-21t15.flac
6:38.19 70251932 B --- -- ---xx flac 0.5653 isbell2012-12-21t16.flac
4:56.68 52374380 B --- -- ---xx flac 0.5587 isbell2012-12-21t17.flac
5:25.42 57428828 B --- -- ---xx flac 0.6515 isbell2012-12-21t18.flac
112:40.71 1192631784 B 0.5879 (18 files)
Checksumsisbell2012-12-21t01.flac:9aefeaf0818d8ea4d427e7da59a99b29
isbell2012-12-21t02.flac:e74120efc2183f594bb83c5fdd39fa3a
isbell2012-12-21t03.flac:41597db4f91d5ebadfa6830041fb2303
isbell2012-12-21t04.flac:fa9c1744f6467646e823b1dc7f6e7d86
isbell2012-12-21t05.flac:fdd47d435d7f26f9b28f230d44a0bdc5
isbell2012-12-21t06.flac:b4bec8062dbd51fa742b8a370b119bfe
isbell2012-12-21t07.flac:648d923141a9535d455b966f45339fae
isbell2012-12-21t08.flac:2fd1774933531eabd7739c3330a04480
isbell2012-12-21t09.flac:d3cfa7039b8ed2c0255d602ccc546b5a
isbell2012-12-21t10.flac:2ae10fc7ddbdabcd12716443ed2f54fe
isbell2012-12-21t11.flac:b5d39e682f8965c44d3747330bad9ffb
isbell2012-12-21t12.flac:2085de53d69b1b71f3e7dfbcc26e1374
isbell2012-12-21t13.flac:a497b619a1e5b3741bcc8af81854826b
isbell2012-12-21t14.flac:b4b2a7768fe30a9076b1e521e46b98b6
isbell2012-12-21t15.flac:653cd207475fbcbd2c6f5cf97f522d0d
isbell2012-12-21t16.flac:486e5f07fca0ed6746a923b5c6a14cc6
isbell2012-12-21t17.flac:a733150c64a6e88b8b50e04dd3a79fea
isbell2012-12-21t18.flac:fa75f67c9b7c9028c35b543dcdbbf8da
TypeOther
Last seederLast activity 18:28:17 ago
Size668.72 MB (701199731 Bytes)
Added2012-12-23 12:42:55
Views0
Hits350
Snatched148 times
Upped bymmedley
Num files
[See full list]
19 files
Peers
[See full list]
1 seeder, 0 leechers = 1 peer total

Add a comment

zmanatl 2012-12-23 14:55:13
Nice work Martin! Have a nice X-Mas!
nelsorp 2012-12-23 15:23:06
thanks for this. hope last night was recorded. great hometown show.
hucklive 2012-12-23 16:57:38
Many Thanks!
Ryan011235 2012-12-23 17:16:05
Thank you.
Reelboy 2012-12-24 11:05:32
Thanks!

Add a comment


http://etree.org : http://db.etree.org : http://forums.etree.org : http://wiki.etree.org : Legal : RSS Feed

Contents designed & maintained by the etree.org volunteers
1998-2014, etree.org, except where noted. All Rights Reserved.
Read our terms of service and privacy guidelines