bt.etree.org
etree.org Community Bittorrent Tracker
ArtistKevn Kinney
ShowDrivin' N' Cryin' The Tabernacle Atlanta, Georgia 12/22/2012 (Schoeps CCM4V'S FOB)
Report this as
non-Trade-Friendly
Email us
Torrentdnc2012-12-22.flac16.torrent (click to download)
Downloads asdnc2012-12-22.flac16
Info hash811e52bd5c7a48b3b13e94e5fa531f7dd8568786
DescriptionDrivin' N' Cryin'
The Tabernacle
Atlanta, Georgia
12/22/2012

Source: Schoeps CCM4V'S(din)>Lunatec V2>Benchmark AD2K>
Sound Devices 722 (24/48)
FOB/DFC/KFC/ZFC/AARP Clamped To The Balcony Rail Between Sections 201 And 202
DSP: Sound Devices 722>Sound Forge 9.0>CD Wave>flac(16)
Recorded By: Z-Man
Seeded By: Z-Man

Disc I

01 Space Eyes>
02 Power House >
03 Honeysuckle Blue
04 Malfunction Junction >
05 Toy Never Played Wih >
06 Scarred But Smarter
07 Ain't Waiting On Tomorrow
08 Pre-Approved, Pre-Denied
09 Build A Fire
10 Underground Umbrella >
11 Fly Me Courageous

Disc II

01 Kevn Kinney Banter
02 With The People >
03 *REM
04 Kevn Banter
05 Hot Wheels
06 Dirty
07 #I Don't Ask For Much >
08 Let's Go Dancin' >
09 I've Got A Fellin' >
10 @^Straight To Hell
Encore:
11 Sadler Banter
12 You And A New Guitar
13 The Innocent >
14 Surrender >
15 Blues On Top Of Blues

* With Jonathan Spencer And Laura Wiggins, The REM Video Contest Winners, On Vocals
# Kevn And Sadler Duet
@ With Michael Trent Of Shovels And Rope On Harmonica And Vocals
^ With Cary Ann Hearst Of Shovels And Rope On Guitar And Vocals

Flac Fingerprint

dnc2012-12-22d01t01.flac:145d2e8bdbf47caa82ed3f2a53d76110
dnc2012-12-22d01t02.flac:2a821554ee9fedb50a91d0bc4cd26b35
dnc2012-12-22d01t03.flac:0a0785f08c24441fd471074b4e505d8b
dnc2012-12-22d01t04.flac:34db6769644c34cd1bd46f09aeca239b
dnc2012-12-22d01t05.flac:fc78a16b4fd591c66b4b3e1744e5aa48
dnc2012-12-22d01t06.flac:ae93a37ce05933fdedd46018b48c0029
dnc2012-12-22d01t07.flac:1b81775f6e95d2be72aba8ac7d7d894b
dnc2012-12-22d01t08.flac:d0b8e7311d61d8919868debdb5bfef90
dnc2012-12-22d01t09.flac:5feff3014dd90a8ff6a2b73c82af4224
dnc2012-12-22d01t10.flac:6ff1ecac968ecb3b3d275b94f8099cec
dnc2012-12-22d01t11.flac:bf921ddb097cda28aebf42588d918255
dnc2012-12-22d02t01.flac:59ef571dddd12dba0fdf7b47cd3c39da
dnc2012-12-22d02t02.flac:15fef7c701bf3303a54887f80907b8f3
dnc2012-12-22d02t03.flac:d7a472062f72fd2cd0e243dd7b4b50e0
dnc2012-12-22d02t04.flac:2bf21a640678d89896580d25d1456569
dnc2012-12-22d02t05.flac:d14d883131228a10529de094bf7c1eeb
dnc2012-12-22d02t06.flac:b55e13c55fc8f994ac5006a2ee8d883a
dnc2012-12-22d02t07.flac:031eebe3f96a16ac5a084a52665d8057
dnc2012-12-22d02t08.flac:9f79d241fd9f1f7d78cd8ab8a8d3c1c0
dnc2012-12-22d02t09.flac:d3917604302b8cefe73247e940521927
dnc2012-12-22d02t10.flac:3d303c89de5f087f482ab77f173f08f9
dnc2012-12-22d02t11.flac:693d4ecfac4ee84663a436baaa1d2dfb
dnc2012-12-22d02t12.flac:313379c2e7f563666d0928d73755096e
dnc2012-12-22d02t13.flac:ff365806c7870e07434541f614c7fb59
dnc2012-12-22d02t14.flac:51a9a9f4c21e0ee70ad58265b41fd14b
dnc2012-12-22d02t15.flac:a031017082c2dd2ce2890f607efd855b

Shntool

length expanded size cdr WAVE problems fmt ratio filename
1:50.37 19491068 B --- -- ---xx flac 0.4597 dnc2012-12-22d01t01.flac
4:55.71 52205036 B --- -- ---xx flac 0.5352 dnc2012-12-22d01t02.flac
8:27.33 89512460 B --- -- ---xx flac 0.5001 dnc2012-12-22d01t03.flac
4:14.69 44967932 B --- -- ---xx flac 0.5237 dnc2012-12-22d01t04.flac
5:21.55 56753804 B --- -- ---xx flac 0.5250 dnc2012-12-22d01t05.flac
2:57.57 31356908 B --- -- ---xx flac 0.5083 dnc2012-12-22d01t06.flac
6:46.22 71670188 B --- -- ---xx flac 0.4383 dnc2012-12-22d01t07.flac
7:10.24 75908492 B --- -- ---xx flac 0.4364 dnc2012-12-22d01t08.flac
6:25.13 67944620 B --- -- ---xx flac 0.4983 dnc2012-12-22d01t09.flac
10:25.50 110367644 B --- -- ---xx flac 0.4565 dnc2012-12-22d01t10.flac
8:59.28 95145500 B --- -- ---xx flac 0.5047 dnc2012-12-22d01t11.flac
1:05.70 11630684 B --- -- ---xx flac 0.3579 dnc2012-12-22d02t01.flac
6:57.40 73652924 B --- -- ---xx flac 0.4081 dnc2012-12-22d02t02.flac
4:35.49 48625292 B --- -- ---xx flac 0.5095 dnc2012-12-22d02t03.flac
1:41.35 17898764 B --- -- ---xx flac 0.3585 dnc2012-12-22d02t04.flac
3:46.13 39897020 B --- -- ---xx flac 0.4845 dnc2012-12-22d02t05.flac
5:24.25 57212444 B --- -- ---xx flac 0.4608 dnc2012-12-22d02t06.flac
3:05.04 32643452 B --- -- ---xx flac 0.3532 dnc2012-12-22d02t07.flac
4:30.51 47747996 B --- -- ---xx flac 0.4923 dnc2012-12-22d02t08.flac
3:02.56 32236556 B --- -- ---xx flac 0.4194 dnc2012-12-22d02t09.flac
11:15.50 119187644 B --- -- ---xx flac 0.4707 dnc2012-12-22d02t10.flac
1:11.17 12564428 B --- -- ---xx flac 0.3418 dnc2012-12-22d02t11.flac
3:24.44 36089132 B --- -- ---xx flac 0.4984 dnc2012-12-22d02t12.flac
5:25.09 57351212 B --- -- ---xx flac 0.5229 dnc2012-12-22d02t13.flac
4:40.20 49439084 B --- -- ---xx flac 0.5420 dnc2012-12-22d02t14.flac
13:24.48 141938540 B --- -- ---xx flac 0.4625 dnc2012-12-22d02t15.flac
141:06.15 1493438824 B 0.4742 (26 files)




Checksumsdnc2012-12-22d01t01.flac:145d2e8bdbf47caa82ed3f2a53d76110<br />
dnc2012-12-22d01t02.flac:2a821554ee9fedb50a91d0bc4cd26b35<br />
dnc2012-12-22d01t03.flac:0a0785f08c24441fd471074b4e505d8b<br />
dnc2012-12-22d01t04.flac:34db6769644c34cd1bd46f09aeca239b<br />
dnc2012-12-22d01t05.flac:fc78a16b4fd591c66b4b3e1744e5aa48<br />
dnc2012-12-22d01t06.flac:ae93a37ce05933fdedd46018b48c0029<br />
dnc2012-12-22d01t07.flac:1b81775f6e95d2be72aba8ac7d7d894b<br />
dnc2012-12-22d01t08.flac:d0b8e7311d61d8919868debdb5bfef90<br />
dnc2012-12-22d01t09.flac:5feff3014dd90a8ff6a2b73c82af4224<br />
dnc2012-12-22d01t10.flac:6ff1ecac968ecb3b3d275b94f8099cec<br />
dnc2012-12-22d01t11.flac:bf921ddb097cda28aebf42588d918255<br />
dnc2012-12-22d02t01.flac:59ef571dddd12dba0fdf7b47cd3c39da<br />
dnc2012-12-22d02t02.flac:15fef7c701bf3303a54887f80907b8f3<br />
dnc2012-12-22d02t03.flac:d7a472062f72fd2cd0e243dd7b4b50e0<br />
dnc2012-12-22d02t04.flac:2bf21a640678d89896580d25d1456569<br />
dnc2012-12-22d02t05.flac:d14d883131228a10529de094bf7c1eeb<br />
dnc2012-12-22d02t06.flac:b55e13c55fc8f994ac5006a2ee8d883a<br />
dnc2012-12-22d02t07.flac:031eebe3f96a16ac5a084a52665d8057<br />
dnc2012-12-22d02t08.flac:9f79d241fd9f1f7d78cd8ab8a8d3c1c0<br />
dnc2012-12-22d02t09.flac:d3917604302b8cefe73247e940521927<br />
dnc2012-12-22d02t10.flac:3d303c89de5f087f482ab77f173f08f9<br />
dnc2012-12-22d02t11.flac:693d4ecfac4ee84663a436baaa1d2dfb<br />
dnc2012-12-22d02t12.flac:313379c2e7f563666d0928d73755096e<br />
dnc2012-12-22d02t13.flac:ff365806c7870e07434541f614c7fb59<br />
dnc2012-12-22d02t14.flac:51a9a9f4c21e0ee70ad58265b41fd14b<br />
dnc2012-12-22d02t15.flac:a031017082c2dd2ce2890f607efd855b<br />
TypeKevn Kinney
Last seederLast activity 18:33 ago
Size675.42 MB (708227015 Bytes)
Added2012-12-23 15:11:46
Views0
Hits277
Snatched83 times
Upped byzmanatl
Num files
[See full list]
27 files
Peers
[See full list]
2 seeders, 0 leechers = 2 peers total

Add a comment

nickautry 2012-12-23 15:49:40
Nice. Thanks, Z.
ziggypayne 2012-12-23 20:17:17
Here's the setlist as posted on the DNC message board:

Space Eyes
Powerhouse
Honeysuckle Blue
Malfunction Junction
Toy Never Played With
Scarred But Smarter
Ain't Waiting On Tomorrow
Pre-Approved, Pre-Denied
Build A Fire
Underground Umbrella
Fly Me Courageous
With The People
REM (with Laura Wiggins and Jonathon Spencer)
Hot Wheels
Dirty
I Don't Ask Much For
Let's Go Dancing
Straight To Hell (with Shovels & Rope)

encore:
You & A New Guitar
The Innocent with a S-A-T-U-R-D-A-Y tease (Bay City Rollers)
Surrender (Cheap Trick)
Blues On Top Of Blues
Blues_Ken 2012-12-24 09:26:36
Thank you Zman and have a very Merry Christmas
Roughcut 2012-12-25 13:18:31
Thank you !!
LakerCrazy 2012-12-25 16:43:01
Thanks Z Man. Another great share.

Add a comment


http://etree.org : http://db.etree.org : http://forums.etree.org : http://wiki.etree.org : Legal : RSS Feed

Contents designed & maintained by the etree.org volunteers
1998-2014, etree.org, except where noted. All Rights Reserved.
Read our terms of service and privacy guidelines