bt.etree.org
etree.org Community Bittorrent Tracker
ArtistOther
ShowShovels And Rope The Tabernacle Atlanta, Georgia 12/22/2012 (Schoeps CCM4V'S FOB)
Report this as
non-Trade-Friendly
Email us
Torrentshovels2012-12-22.flac16.torrent (click to download)
Downloads asshovels2012-12-22.flac16
Info hash10758eb90f9c54d3d9852aaed1701e075a72829e
DescriptionShovels And Rope
The Tabernacle
Atlanta, Georgia
12/22/2012

Source: Schoeps CCM4V'S(din)>Lunatec V2>Benchmark AD2K>
Sound Devices 722 (24/48)
FOB/DFC/KFC/ZFC/AARP Clamped To The Balcony Rail Between Sections 201 And 202
DSP: Sound Devices 722>Sound Forge 9.0>CD Wave>flac(16)
Recorded By: Z-Man
Seeded By: Z-Man

Disc I

01 Gasoline
02 O'Be Joyful
03 Birmingham >
04 Forsaken Blues
05 Have Yourself A Merry Little Christmas >
06 Tell the Truth
07 Keeper
08 When I
09 The Winner
10 Kemba’s Got The Cabbage Moth Blues
11 1200 Miles
12 The Thread
13 Who's Gonna Raise These Babies
14 Little Drummer Boy Tease
15 Hail Hail

Flac Fingerprint

shovels2012-12-22d01t01.flac:c9ce19ec348c614f5d512b0ea861253b
shovels2012-12-22d01t02.flac:79ed61fd24c8bdaed7e80d5b2a9aca55
shovels2012-12-22d01t03.flac:2c8cd0e94206844c199730bb3b145f92
shovels2012-12-22d01t04.flac:3976020a95945100739e2ccf40d74e89
shovels2012-12-22d01t05.flac:a5ad5ad3dd12cdaa5f6bd505144a29cb
shovels2012-12-22d01t06.flac:464da8ac73dc591059f3ac2881fbed1a
shovels2012-12-22d01t07.flac:ef17aa6ece8d3f4e0b843875518b82ef
shovels2012-12-22d01t08.flac:415dbe5cf2d6f6e86fd571134d72e770
shovels2012-12-22d01t09.flac:bf63055d39305c701c080dc9b71905a2
shovels2012-12-22d01t10.flac:efd6999a1da4cad66060dd58c923d961
shovels2012-12-22d01t11.flac:e483d49a69a5dc209aaa4d35264ae669
shovels2012-12-22d01t12.flac:af13156fdd496e06bf9173203cb9b3aa
shovels2012-12-22d01t13.flac:86a4073a74dad1a1478bbb890fd84349
shovels2012-12-22d01t14.flac:6ad139fb7622fc95cc799e102798761e
shovels2012-12-22d01t15.flac:e3d2c636689f5df0038fe541ea0139be

Shntool

length expanded size cdr WAVE problems fmt ratio filename
3:22.40 35726924 B --- -- ---xx flac 0.4244 shovels2012-12-22d01t01.flac
3:03.55 32410604 B --- -- ---xx flac 0.4531 shovels2012-12-22d01t02.flac
4:16.06 45172556 B --- -- ---xx flac 0.4649 shovels2012-12-22d01t03.flac
3:55.31 41526956 B --- -- ---xx flac 0.4738 shovels2012-12-22d01t04.flac
0:38.61 6846716 B --- -- ---xx flac 0.3486 shovels2012-12-22d01t05.flac
4:07.25 43629644 B --- -- ---xx flac 0.4638 shovels2012-12-22d01t06.flac
4:46.60 50591564 B --- -- ---xx flac 0.4833 shovels2012-12-22d01t07.flac
5:20.57 56582108 B --- -- ---xx flac 0.4531 shovels2012-12-22d01t08.flac
5:09.02 54512348 B --- -- ---xx flac 0.5115 shovels2012-12-22d01t09.flac
2:18.02 24347948 B --- -- ---xx flac 0.4646 shovels2012-12-22d01t10.flac
4:51.59 51471212 B --- -- ---xx flac 0.4460 shovels2012-12-22d01t11.flac
4:23.38 46482620 B --- -- ---xx flac 0.4431 shovels2012-12-22d01t12.flac
3:34.66 37904876 B --- -- ---xx flac 0.4748 shovels2012-12-22d01t13.flac
0:21.36 3789116 B --- -- ---xx flac 0.3972 shovels2012-12-22d01t14.flac
7:57.42 84241628 B --- -- ---xx flac 0.4997 shovels2012-12-22d01t15.flac
58:07.55 615236820 B 0.4674 (15 files)









Checksumsshovels2012-12-22d01t01.flac:c9ce19ec348c614f5d512b0ea861253b<br />
shovels2012-12-22d01t02.flac:79ed61fd24c8bdaed7e80d5b2a9aca55<br />
shovels2012-12-22d01t03.flac:2c8cd0e94206844c199730bb3b145f92<br />
shovels2012-12-22d01t04.flac:3976020a95945100739e2ccf40d74e89<br />
shovels2012-12-22d01t05.flac:a5ad5ad3dd12cdaa5f6bd505144a29cb<br />
shovels2012-12-22d01t06.flac:464da8ac73dc591059f3ac2881fbed1a<br />
shovels2012-12-22d01t07.flac:ef17aa6ece8d3f4e0b843875518b82ef<br />
shovels2012-12-22d01t08.flac:415dbe5cf2d6f6e86fd571134d72e770<br />
shovels2012-12-22d01t09.flac:bf63055d39305c701c080dc9b71905a2<br />
shovels2012-12-22d01t10.flac:efd6999a1da4cad66060dd58c923d961<br />
shovels2012-12-22d01t11.flac:e483d49a69a5dc209aaa4d35264ae669<br />
shovels2012-12-22d01t12.flac:af13156fdd496e06bf9173203cb9b3aa<br />
shovels2012-12-22d01t13.flac:86a4073a74dad1a1478bbb890fd84349<br />
shovels2012-12-22d01t14.flac:6ad139fb7622fc95cc799e102798761e<br />
shovels2012-12-22d01t15.flac:e3d2c636689f5df0038fe541ea0139be
TypeOther
Last seederLast activity 22:35:54 ago
Size274.26 MB (287584438 Bytes)
Added2012-12-23 16:37:14
Views0
Hits257
Snatched86 times
Upped byzmanatl
Num files16 files
File List
[Hide list]
filenamesizemd5
shovels2012-12-22d01t15.flac40.14 MBN/A
shovels2012-12-22d01t09.flac26.59 MBN/A
shovels2012-12-22d01t08.flac24.45 MBN/A
shovels2012-12-22d01t07.flac23.32 MBN/A
shovels2012-12-22d01t11.flac21.89 MBN/A
shovels2012-12-22d01t03.flac20.03 MBN/A
shovels2012-12-22d01t12.flac19.64 MBN/A
shovels2012-12-22d01t06.flac19.30 MBN/A
shovels2012-12-22d01t04.flac18.77 MBN/A
shovels2012-12-22d01t13.flac17.16 MBN/A
shovels2012-12-22d01t01.flac14.46 MBN/A
shovels2012-12-22d01t02.flac14.01 MBN/A
shovels2012-12-22d01t10.flac10.79 MBN/A
shovels2012-12-22d01t05.flac2.28 MBN/A
shovels2012-12-22d01t14.flac1.44 MBN/A
shovels2012-12-22.textfile.txt3.0 kBN/A
Peers
[See full list]
1 seeder, 0 leechers = 1 peer total

Add a comment

tinaweymouth611 2012-12-23 17:53:24
Nice work Z! Love Cary Ann!
Blues_Ken 2012-12-24 09:26:57
Thank you Zman and have a very Merry Christmas
jason_nc 2012-12-24 19:15:23
love these two! thanks for sharing Zman. Merry Christmas
leefer 2012-12-24 23:23:20
Z Man. You are the Man! Cary Ann and Michael are awesome!
Thanks for recording this and getting it out!!!!
For everyone reading this also listen to Blackberry Smoke.....Boys are kickin' ass right about now.
Merry Christmas!
Leefer
LakerCrazy 2012-12-25 16:41:25
Thanks Z Man. Appreciate your sharing this one.
obh2o 2013-01-10 00:22:01
Thanks again Z-man !!

http://www.dimeadozen.org/torrents-details.php?id=434773 ;)

colinw 2013-01-11 16:40:13
anyone have an updated setlist?
colinw 2013-01-14 14:52:57
Worked through the setlist. Here it is:

01 Gasoline
02 O'Be Joyful
03 Birmingham >
04 Forsaken Blues
05 Have Yourself A Merry Little Christmas >
06 Tell the Truth
07 Keeper
08 When I
09 The Winner
10 Kemba’s Got The Cabbage Moth Blues
11 1200 Miles
12 The Thread
13 Who's Gonna Raise These Babies
14 Little Drummer Boy Tease
15 Hail Hail

Add a comment


http://etree.org : http://db.etree.org : http://forums.etree.org : http://wiki.etree.org : Legal : RSS Feed

Contents designed & maintained by the etree.org volunteers
© 1998-2014, etree.org, except where noted. All Rights Reserved.
Read our terms of service and privacy guidelines