bt.etree.org
etree.org Community Bittorrent Tracker
ArtistKarl Denson's Tiny Universe
ShowKDTU w/guests Ivan Neville and Chali 2na, 2012-11-24, Belly Up, Solana Beach, CA **CA-14o > 9200**
Report this as
non-Trade-Friendly
Email us
Torrentkdtu2012-11-24.ca14.flac.torrent (click to download)
Downloads askdtu2012-11-24.ca14o.9200.flac
Info hashbf80ba4212494b9e832fdf843cf7ff12cc016600
DescriptionKarl Denson
November 24, 2012 (Saturday)
Solana Beach, Ca.
Belly Up Tavern

Source: Church Audio CA-14o (PAS) > CA-9200 Pre > Zoom H4N (24/48)
Location: FOB/ROC ~ 15 ft. Back
Transfer: Soundforge 9.0 (normalize, Resample, Dither) > cdwav (track) > Flac level 8

Recorded and Transferred by obaaron

Disc 1
01.
02.
03.
04.
05.
06.
07.
08.
09.
10.
11.

Disc 2
01.
02.
03.
04.
05.
06.
07.
08.
09.
10.

W/Special Guests Ivan Neville and Chali Tuna
Checksumskdtu2012-11-24d1t01.flac:614b39a4fa7644f69dddbadd07833439<br />
kdtu2012-11-24d1t02.flac:09a42de200d2c35da5ab0298b9b53641<br />
kdtu2012-11-24d1t03.flac:40e80698e59536fd17d2dcf3f7dc4826<br />
kdtu2012-11-24d1t04.flac:ca987179434202a35eba6bc5c6f2f403<br />
kdtu2012-11-24d1t05.flac:66230b343ee223071c16756dd63aadd7<br />
kdtu2012-11-24d1t06.flac:88981510cfc5625cf9d98205878a22ba<br />
kdtu2012-11-24d1t07.flac:c7b82b9be603e8082e494c5ce52ce6bc<br />
kdtu2012-11-24d1t08.flac:098202e9e75fce6b4b8e8c4a47c29bee<br />
kdtu2012-11-24d1t09.flac:c73c6927e4073479985538e72f203447<br />
kdtu2012-11-24d1t10.flac:ccae37099b0278c04192eac90a0a15b0<br />
kdtu2012-11-24d1t11.flac:fd6f80411eebfae009e96dd837c90090<br />
kdtu2012-11-24d2t01.flac:29e703adab20a11e44e6de2bc6c57906<br />
kdtu2012-11-24d2t02.flac:ec5e45722176540094402b58499161e4<br />
kdtu2012-11-24d2t03.flac:8352598a208b01ca1dcc8d5cf21cfd20<br />
kdtu2012-11-24d2t04.flac:e6f9df097e29cbda51cbc67fc3232ec5<br />
kdtu2012-11-24d2t05.flac:c5755e9398937f0494c701c70fb92579<br />
kdtu2012-11-24d2t06.flac:f173ced96aa9e43ba4d9424661aaf467<br />
kdtu2012-11-24d2t07.flac:b045e4d8998120ac0c826e59c2c02cce<br />
kdtu2012-11-24d2t08.flac:ff4d958a41ff87618d681286c53368ff<br />
kdtu2012-11-24d2t09.flac:46ef4f758df8cd390da1dc16e2c10de9<br />
kdtu2012-11-24d2t10.flac:cb37d439abd2c8e2bf6f2f46ba77b6b5<br />
<br />
Checksum file saved to disk.<br />
<br />
No errors occured.<br />
<br />
length expanded size cdr WAVE problems fmt ratio filename<br />
0:49.47 8754188 B --- -- ---xx flac 0.3978 kdtu2012-11-24d1t01.flac<br />
3:07.70 33151484 B --- -- ---xx flac 0.5947 kdtu2012-11-24d1t02.flac<br />
15:44.35 166603964 B --- -- ---xx flac 0.5683 kdtu2012-11-24d1t03.flac<br />
3:54.04 41287052 B --- -- ---xx flac 0.6025 kdtu2012-11-24d1t04.flac<br />
9:59.42 105762428 B --- -- ---xx flac 0.6160 kdtu2012-11-24d1t05.flac<br />
4:52.19 51553532 B --- -- ---xx flac 0.6167 kdtu2012-11-24d1t06.flac<br />
3:26.08 36357260 B --- -- ---xx flac 0.6012 kdtu2012-11-24d1t07.flac<br />
3:27.30 36585404 B --- -- ---xx flac 0.4289 kdtu2012-11-24d1t08.flac<br />
6:32.15 69184124 B --- -- ---xx flac 0.6071 kdtu2012-11-24d1t09.flac<br />
6:28.20 68490284 B --- -- ---xx flac 0.5435 kdtu2012-11-24d1t10.flac<br />
6:04.50 64327244 B --- -- ---xx flac 0.6287 kdtu2012-11-24d1t11.flac<br />
5:55.44 62725532 B --- -- ---xx flac 0.5715 kdtu2012-11-24d2t01.flac<br />
12:41.01 134242796 B --- -- ---xx flac 0.6216 kdtu2012-11-24d2t02.flac<br />
3:29.66 37022876 B --- -- ---xx flac 0.5853 kdtu2012-11-24d2t03.flac<br />
4:22.35 46299164 B --- -- ---xx flac 0.6351 kdtu2012-11-24d2t04.flac<br />
7:32.29 79801052 B --- -- ---xx flac 0.5955 kdtu2012-11-24d2t05.flac<br />
6:17.47 66613388 B --- -- ---xx flac 0.5680 kdtu2012-11-24d2t06.flac<br />
7:47.35 82461164 B --- -- ---xx flac 0.6144 kdtu2012-11-24d2t07.flac<br />
10:22.45 109826684 B --- -- ---xx flac 0.6226 kdtu2012-11-24d2t08.flac<br />
1:58.45 20921084 B --- -- ---xx flac 0.4741 kdtu2012-11-24d2t09.flac<br />
4:46.05 50462204 B --- -- ---xx flac 0.5635 kdtu2012-11-24d2t10.flac<br />
129:40.17 1372432908 B 0.5902 (21 files)<br />
<br />
No errors occured.<br />
TypeKarl Denson's Tiny Universe
Last seederLast activity 3 days, 14:33:41 ago
Size772.51 MB (810034948 Bytes)
Added2012-12-24 00:08:29
Views0
Hits283
Snatched104 times
Upped byobaaron
Num files25 files
File List
[Hide list]
filenamesizemd5
kdtu2012-11-24.ca14.ffp1.2 kBN/A
kdtu2012-11-24.ca14.flac.md51.4 kBN/A
kdtu2012-11-24.ca14.shntool_len.txt2.0 kBN/A
kdtu2012-11-24.ca14.txt3.8 kBN/A
kdtu2012-11-24d1t01.flac3.32 MBN/A
kdtu2012-11-24d1t02.flac18.80 MBN/A
kdtu2012-11-24d1t03.flac90.30 MBN/A
kdtu2012-11-24d1t04.flac23.72 MBN/A
kdtu2012-11-24d1t05.flac62.13 MBN/A
kdtu2012-11-24d1t06.flac30.32 MBN/A
kdtu2012-11-24d1t07.flac20.85 MBN/A
kdtu2012-11-24d1t08.flac14.97 MBN/A
kdtu2012-11-24d1t09.flac40.06 MBN/A
kdtu2012-11-24d1t10.flac35.50 MBN/A
kdtu2012-11-24d1t11.flac38.57 MBN/A
kdtu2012-11-24d2t01.flac34.19 MBN/A
kdtu2012-11-24d2t02.flac79.58 MBN/A
kdtu2012-11-24d2t03.flac20.66 MBN/A
kdtu2012-11-24d2t04.flac28.04 MBN/A
kdtu2012-11-24d2t05.flac45.32 MBN/A
kdtu2012-11-24d2t06.flac36.08 MBN/A
kdtu2012-11-24d2t07.flac48.32 MBN/A
kdtu2012-11-24d2t08.flac65.21 MBN/A
kdtu2012-11-24d2t09.flac9.46 MBN/A
kdtu2012-11-24d2t10.flac27.12 MBN/A
Peers
[See full list]
0 seeders, 1 leecher = 1 peer total

Add a comment

obaaron 2012-12-24 00:39:23
i know some of these songs but don't have time to listen through....Karl announces many of them. If someone with more knowledge wants to take a stab at the setlist I'll update.

enjoy!
obaaron 2012-12-24 00:39:46
meant to add.....awesome show...high energy!!
snowgorilla81 2012-12-24 09:27:37
"W/Special Guests Ivan Neville and Chali Tuna"

CHARLEY TUNA FOR CRYING OUT LOUD!
CHICKEN OF THE SEA! PL-PLEASE!
LOL!
obaaron 2012-12-24 10:31:41
Chali Tuna is a rapper from Jurassic 5 for those not in the hip hop "know" lol.

AnD he killed it!
acereraser 2012-12-24 12:36:48
Wow, thanks a bunch for this. Here's another jazz rock fan who loves the J5, if someone is keeping track.
JeremyLykins 2012-12-24 13:41:42
"Chali Tuna is a rapper from Jurassic 5 for those not in the hip hop "know" lol."

Funny story -- I had never heard of him when I saw him open for Galactic a few years ago and his name was spelled Chali 2na, so I read it as Kahlee Toonah. LOL
obaaron 2012-12-24 13:43:19
oh yeah it is 2na...oops oh well ;)
JeremyLykins 2012-12-24 16:29:11
Speaking of misspelled names, at a different Galactic show a few years ago Lateef the Truthspeaker was on stage for a few songs with the band and I recorded the show, but in the text file I wrote his name as Lateef the Truthseeker. I blame that one on my bad ears, but I guess that you've gotta seek the truth if you're gonna speak the truth, right?
bathtubtim1 2012-12-24 19:26:38
i skimmed this today while wrappin presents, there's more with 2na, but i caught this:

d1t6 Comin Thru (Chali 2na)
d1t7 What's Golden (Chali 2na)
d1t110 Wild Horses
d2t3 Lock Shit Down (Chali 2na)
d2t4 i forgot..... (Chali 2na)

and the encore is Sabotage...
cosmicsoul420 2012-12-25 03:33:23

Set 1
01. intro
02. new instrumental ??
03. Galaxy
04. Everybody Knows That
05. galactic tune ? $
06. Comin Thru !
07. What's Golden !
08. support "Rancho Buena Vista Schools"
09. Let A Woman Be A Woman, Let A Man Be A Man $
10. Wild Horses $
11. The Dual
Set 2
12. Whip-Whop
13. instrumental ??
14. Lock Shit Down !
15. I Forgot.... !
16. dumpsta tune ? $
17. Hercules $
18. (Don't Worry) If There's A Hell Below Were All Gonna Go $
19. new instrumental ??
20. encore
21. Sabotage


best i could do, THANKS for the upload, great show indeed!

$ with Ivan Neville
! with Chali 2na
RandyBayers 2012-12-25 08:39:28
Chali 2na is the shit, especially with a live band. Here are some bad ass videos of Chali and his band at Bear Creek 2011: funkit.virose.net/?p=1693
cosmicsoul420 2012-12-25 15:24:12
what up Randy! i was hoping you would chime in , whats the name of the tunes i missed? how bout you kidadam, you know any of these names of tunes ?
RandyBayers 2012-12-28 21:09:31
t16 is What You Want From Me from Ivan's 2004 album Scrape

Add a comment


http://etree.org : http://db.etree.org : http://forums.etree.org : http://wiki.etree.org : Legal : RSS Feed

Contents designed & maintained by the etree.org volunteers
1998-2014, etree.org, except where noted. All Rights Reserved.
Read our terms of service and privacy guidelines