bt.etree.org
etree.org Community Bittorrent Tracker
ArtistGrateful Dead
Showgd82-07-17.102494.fob-senn421.wise-miller.t-flac16
Report this as
non-Trade-Friendly
Email us
Torrentgd82-07-17.102494.fob-senn421.wise-miller.t-flac16.torrent (click to download)
Downloads asgd82-07-17.102494.fob-senn421.wise-miller.t-flac16
Info hashd86e56343bd712a4c9a592fd3b2bf659c6587080
db linkhttp://db.etree.org/shn/102494 | Show | Source
DescriptionThis is a tagged version of shnnid: 102494

Grateful Dead
July 17, 1982
County Fairgrounds
Ventura, CA

Recording Info:
(FOB) Sennheiser 421 -> Cassette Master (Sony TC-D5M/Maxell UDXLII-C90/Dolby B)

Transfer Info:
Cassette Master (Nakamichi DR-1/Dolby B) -> Sound Devices 744T (24bit/96k) ->
Adobe Audition v1.5 -> Samplitude Professional v10.22 -> FLAC/16
(2 Discs Audio / 2 Discs FLAC)

All Transfers and Mastering By Charlie Miller
charliemiller87@earthlink.net
November 12, 2009

Notes:
-- Recorded By Jim Wise
-- Thanks to Jim Wise for lending me his master cassettes
-- Thanks to Joe B. Jones for his help with the pitch correction
________________________________________________________________________

--Set 1--
101-d1t01 - Tuning
102-d1t02 - Bertha ->
103-d1t03 - Greatest Story Ever Told
104-d1t04 - They Love Each Other
105-d1t05 - Me & My Uncle ->
106-d1t06 - Big River
107-d1t07 - Althea ->
108-d1t08 - Little Red Rooster
109-d1t09 - Tennessee Jed ->
110-d1t10 - Truckin'

--Set 2--
201-d2t01 - Playing in the Band ->
202-d2t02 - China Cat Sunflower ->
203-d2t03 - I Know You Rider ->
204-d2t04 - Estimated Prophet ->
205-d2t05 - Drums ->
206-d2t06 - Space ->
207-d2t07 - The Wheel ->
208-d2t08 - Playing in the Band ->
209-d2t09 - Around & Around ->
210-d2t10 - One More Saturday Night

--Encore--
211-d2t11 - It's All Over Now, Baby Blue
________________________________________________________________________

Tagging notes:
Show information is embedded within the header of each flac file.
It will display on any player capable of directly playing flac
files. If converted to wav during processing, all tags will be
stripped, however audio data will remain unaffected. If you must
transcode to a lossy format, do so directly Flac > Lossy.
Use ffp to validate audio integrity.
Md5 values will change if tagging is altered.
B. Proctor 10-27-10
________________________________________________________________________

SHNTOOL OUTPUT:
length expanded size cdr WAVE problems filename
2:13.74 23635292 --- -- ----- gd82-07-17d1t01.wav
6:52.66 72832076 --- -- ----- gd82-07-17d1t02.wav
4:00.59 42474812 --- -- ----- gd82-07-17d1t03.wav
9:04.09 95982812 --- -- ----- gd82-07-17d1t04.wav
2:56.02 31051148 --- -- ----- gd82-07-17d1t05.wav
6:01.59 63819212 --- -- ----- gd82-07-17d1t06.wav
7:54.48 83726540 --- -- ----- gd82-07-17d1t07.wav
9:20.21 98833436 --- -- ----- gd82-07-17d1t08.wav
8:11.60 86753564 --- -- ----- gd82-07-17d1t09.wav
11:00.48 116536940 --- -- ----- gd82-07-17d1t10.wav
11:54.25 126008444 --- -- ----- gd82-07-17d2t01.wav
5:54.66 62600876 --- -- ----- gd82-07-17d2t02.wav
7:02.53 74565500 --- -- ----- gd82-07-17d2t03.wav
14:39.14 155088572 --- -- ----- gd82-07-17d2t04.wav
7:44.12 81877868 --- -- ----- gd82-07-17d2t05.wav
4:39.06 49229756 --- -- ----- gd82-07-17d2t06.wav
5:23.06 56991356 --- -- ----- gd82-07-17d2t07.wav
4:12.14 44485772 --- -- ----- gd82-07-17d2t08.wav
3:42.60 39301964 --- -- ----- gd82-07-17d2t09.wav
4:29.50 47569244 --- -- ----- gd82-07-17d2t10.wav
7:02.54 74567852 --- -- ----- gd82-07-17d2t11.wav
144:21.56 1527933036 B (totals for 21 files)
Checksumsgd82-07-17d1t01.flac:f7e1bcfda08c28e4a0ac6abde08c0259
gd82-07-17d1t02.flac:d98b6e5a2b7d47520124041ce4d9a60a
gd82-07-17d1t03.flac:d676ecea676e910bf11e52369da41489
gd82-07-17d1t04.flac:ee6b1cd3cc9fda52722b0b6dd6820df2
gd82-07-17d1t05.flac:cd07066f136bae577d2673c4acb7225f
gd82-07-17d1t06.flac:47e95823643eead307d21c236e1e231f
gd82-07-17d1t07.flac:31ac5852ecc346aa788e9bf8edb9b066
gd82-07-17d1t08.flac:6919c168aa593777b9c0aeb86887bb14
gd82-07-17d1t09.flac:096949793c9c627cdece5d894861d2a0
gd82-07-17d1t10.flac:71034fb60e81a9877c19a1e2606ff723
gd82-07-17d2t01.flac:3f6fcc0bc1d873b0bf808f037e2433d4
gd82-07-17d2t02.flac:f64c62fd542267a4f44aa87a5fe63bba
gd82-07-17d2t03.flac:18721d04b56d33435b551cc56dbea64f
gd82-07-17d2t04.flac:f3c1a52909ce1317021b922224aba5dc
gd82-07-17d2t05.flac:14b51fd9bf12790b73308b9c3309f0c2
gd82-07-17d2t06.flac:21d97640e6f0a54ae4b328004ac2963c
gd82-07-17d2t07.flac:e4d3c5a93ad5b1751803ce7a20c2640b
gd82-07-17d2t08.flac:449027c716bd069ff759c6092dfac2bd
gd82-07-17d2t09.flac:c41625003cf32800ab44da01f4365849
gd82-07-17d2t10.flac:29770424d44e62584c11bc1be0467de4
gd82-07-17d2t11.flac:f830066765a4c4d1ebaf76cd31264e2e
TypeGrateful Dead
Last seederLast activity 13:15 ago
Size906.36 MB (950387069 Bytes)
Added2012-12-24 06:28:58
Views4
Hits406
Snatched233 times
Upped bySpiralLightofVenus
Num files
[See full list]
24 files
Peers
[See full list]
1 seeder, 0 leechers = 1 peer total

Add a comment

tommie01 2012-12-24 09:40:31
Thank you SLV, Jim, and Charlie - Merry Christmas.
srsantay 2012-12-24 16:40:15
excellent show

Add a comment


http://etree.org : http://db.etree.org : http://forums.etree.org : http://wiki.etree.org : Legal : RSS Feed

Contents designed & maintained by the etree.org volunteers
1998-2014, etree.org, except where noted. All Rights Reserved.
Read our terms of service and privacy guidelines