bt.etree.org
etree.org Community Bittorrent Tracker
ArtistGrateful Dead
Showgd82-07-25.102502.fob-senn421.wise-miller.t-flac16
Report this as
non-Trade-Friendly
Email us
Torrentgd82-07-25.102502.fob-senn421.wise-miller.t-flac16.torrent (click to download)
Downloads asgd82-07-25.102502.fob-senn421.wise-miller.t-flac16
Info hash6dd60316573f73470b5257d400f07fb6255568ed
db linkhttp://db.etree.org/shn/102502 | Show | Source
DescriptionThis is a tagged version of shnid: 102502

Grateful Dead
July 25, 1982
Compton Terrace
Tempe, AZ

Recording Info:
(FOB) Sennheiser 421 -> Cassette Master
(Sony TC-D5M/Maxell UDXLII-C90/Dolby B)

Transfer Info:
Cassette Master (Nakamichi DR-1/Dolby B) ->
Sound Devices 744T (24bit/96k) ->Adobe Audition v1.5 ->
Samplitude Professional v10.22 -> FLAC/16
(3 Discs Audio / 2 Discs FLAC)

All Transfers and Mastering By Charlie Miller
charliemiller87@earthlink.net
November 12, 2009

Patch Info:
Sennheiser 421 -> Cassette Master -> FLAC (shnid=80279) supplies:
Estimated Prophet (9:31 - 9:40)
Drums (complete track)

Notes:
-- Set 2 is seamlewss
-- Recorded By Jim Wise
-- Thanks to Jim Wise for lending me his master cassettes
-- Thanks to Joe B. Jones for his help with the pitch correction
______________________________________________________________________

--Set 1--
101-d1t01 - Mississippi Half-Step Uptown Toodeloo ->
102-d1t02 - Franklin's Tower ->
103-d1t03 - C C Rider
104-d1t04 - Bird Song
105-d1t05 - El Paso
106-d1t06 - Candyman
107-d1t07 - Lost Sailor ->
108-d1t08 - Saint of Circumstance ->
109-d1t09 - Deal

--Set 2--
201-d2t01 - Tuning
202-d2t02 - Scarlet Begonias ->
203-d2t03 - Fire on the Mountain ->
204-d2t04 - Samson & Delilah
205-d2t05 - Crazy Fingers ->
206-d2t06 - Estimated Prophet ->
207-d2t07 - Drums ->
208-d3t01 - Space ->
209-d3t02 - Not Fade Away ->
210-d3t03 - Black Peter ->
211-d3t04 - Good Lovin'

--Encore--
212-d3t05 - Don't Ease Me In
______________________________________________________________________


Tagging notes:
Show information is embedded within the header of each flac file.
It will display on any player capable of directly playing flac
files. If converted to wav during processing, all tags will be
stripped, however audio data will remain unaffected. If you must
transcode to a lossy format, do so directly Flac > Lossy.
Use ffp to validate audio integrity.
Md5 values will change if tagging is altered.
B. Proctor 10-26-10
______________________________________________________________________

SHNTOOL OUTPUT:
length expanded size cdr WAVE problems filename
9:18.68 98591180 --- -- ----- gd82-07-25d1t01.wav
10:28.63 110927420 --- -- ----- gd82-07-25d1t02.wav
7:45.20 82073084 --- -- ----- gd82-07-25d1t03.wav
10:15.29 108554252 --- -- ----- gd82-07-25d1t04.wav
5:53.04 62278652 --- -- ----- gd82-07-25d1t05.wav
6:38.00 70207244 --- -- ----- gd82-07-25d1t06.wav
6:58.30 73805804 --- -- ----- gd82-07-25d1t07.wav
6:53.65 73006124 --- -- ----- gd82-07-25d1t08.wav
8:03.17 85241228 --- -- ----- gd82-07-25d1t09.wav
1:09.33 12249260 --- -- ----- gd82-07-25d2t01.wav
9:37.13 101813420 --- -- ----- gd82-07-25d2t02.wav
9:02.74 95782892 --- -- ----- gd82-07-25d2t03.wav
9:08.28 96733100 --- -- ----- gd82-07-25d2t04.wav
8:44.23 92487740 --- -- ----- gd82-07-25d2t05.wav
17:32.33 185650460 --- -- ----- gd82-07-25d2t06.wav
6:24.51 67857596 --- -- ----- gd82-07-25d2t07.wav
4:18.28 45577100 --- -- ----- gd82-07-25d3t01.wav
7:07.51 75442796 --- -- ----- gd82-07-25d3t02.wav
8:52.52 93967148 --- -- ----- gd82-07-25d3t03.wav
9:38.24 102015692 --- -- ----- gd82-07-25d3t04.wav
3:21.48 35569340 --- -- ----- gd82-07-25d3t05.wav
167:13.04 1769831532 B (totals for 21 files)
Checksumsgd82-07-25d1t01.flac:6f21fef0ac137d77ba89c2ee8be7534a
gd82-07-25d1t02.flac:f22eb9b075fe378da2eaf775e83bb9e6
gd82-07-25d1t03.flac:dcb93594b2d84c35657b1011e1903741
gd82-07-25d1t04.flac:72a8ad285560dfb372c9240c074d5fe7
gd82-07-25d1t05.flac:f1359f7387d3bf32d051b5d159abb6bf
gd82-07-25d1t06.flac:54b395e4a35656f8d309c68971271f3f
gd82-07-25d1t07.flac:151a4d99b284e9df23daf53cd239e1a7
gd82-07-25d1t08.flac:4fac2a1ad37fa7771e4aaa1e10b192cd
gd82-07-25d1t09.flac:64454c3fd3bcec61ee77f79401e05625
gd82-07-25d2t01.flac:560e1548aeed0f760646f73b5078b7f7
gd82-07-25d2t02.flac:8492ad026c748c8e4fe07ef63e107b5c
gd82-07-25d2t03.flac:18cd54170b83f3c63d6a4f67e8e3d60e
gd82-07-25d2t04.flac:2ddbb56f5d1cd1b0db2fa1caf341ae22
gd82-07-25d2t05.flac:06d5f6d328ed5060de7903232ffccc3a
gd82-07-25d2t06.flac:f90fc9f552e8dc6d5f7bf197cfb0accd
gd82-07-25d2t07.flac:b0abacfdda1e5aa1d146b37b943bd14e
gd82-07-25d3t01.flac:c23cce050c489cec160fcef175cec126
gd82-07-25d3t02.flac:1d4aed6bf1fbf938c00e0d88cd6afe22
gd82-07-25d3t03.flac:9d444e8cee6dd1b85da93ce1dbade1af
gd82-07-25d3t04.flac:c9e1c98ecc395c0ff576ff54bda65bd6
gd82-07-25d3t05.flac:c4b62b0821d42af39951d5c54495d05d
TypeGrateful Dead
Last seederLast activity 10:07 ago
Size1.010 GB (1084624064 Bytes)
Added2012-12-24 06:29:00
Views1
Hits432
Snatched244 times
Upped bySpiralLightofVenus
Num files
[See full list]
24 files
Peers
[See full list]
2 seeders, 0 leechers = 2 peers total

Add a comment

KB69 2014-04-25 19:03:05
Thank you!!

Add a comment


http://etree.org : http://db.etree.org : http://forums.etree.org : http://wiki.etree.org : Legal : RSS Feed

Contents designed & maintained by the etree.org volunteers
1998-2014, etree.org, except where noted. All Rights Reserved.
Read our terms of service and privacy guidelines