bt.etree.org
etree.org Community Bittorrent Tracker
ArtistOther
ShowSecret Santa Jam And Benefit Steve's Live Music Sandy Springs, Georgia 12/18/2012 (Schoeps CCM4V'S FOB)
Report this as
non-Trade-Friendly
Email us
Torrentsecret2012-12-18.flac16.torrent (click to download)
Downloads assecret2012-12-18.flac16
Info hash6af1baf4e4333026faab686f21a6f32eb88e913e
DescriptionSecret Santa Jam And Benefit
Steve's Live Music
Sandy Springs, Georgia
12/18/2012

Source: Schoeps CCM4V'S(din)>Lunatec V2>Benchmark AD2K>
Sound Devices 722 (24/48)
FOB/DFC/KFC/ZFC/AARP 9' From Stage, 6' High
DSP: Sound Devices 722>Sound Forge 9.0>CD Wave>flac(16)
Recorded By: Z-Man
Seeded By: Z-Man

Disc I

Tommy Talton:
01 Introduction By Terry Reeves/Tuning
02 Make It Through The Rain
03 ?
04 *Let's Get Out Of Here
05 #?
06 #On Your Way Down
John Hopkins, Darren Nicholson, And Steve Sutton:
07 I Will Lay Me Down
08 Nothing
09 She Don't Love Me
10 Love You Forever
11 Terry Reeves Outro

* With Lil' Al Cordy Of The Lee Boys On Bass, Rick Seymour Of Drippin'
Wet On Guitar, And Chuck Of Drippin' Wet On Percussion
# With Jack Hall On Bass, Ric Seymour On Guitar, Chuck On Percussion,
And Bobby Mobley On Keyboards, All Of Drippin' Wet

Disc II

Tommy Talton And Diane Durrett:
01 Introduction
02 Lookin' At The Bright Side
03 Between Times
04 Sassy Larue
05 Rudolph/Shine, Shine, Shine
Drippin' Wet:
06 Make You Move Too Soon
07 ?
08 Street Corner Serenades
09 ?
10 *Rendevous With The Blues
11 *Give A Little Bit
12 ?
13 *#Love The One You're With >
14 *#Jingle Bells >
15 *#Can't Always Get What You Want >
16 *#Wish You A Vewry Merry Christmas >
17 *#Lo ve The One You're With

* With Tommy Talton
# With Diane Durrett

Flac Fingerprint

secret2012-12-18d01t01.flac:31aee1e16a0fb0d712c5f13397acfc57
secret2012-12-18d01t02.flac:20700f42581033519f948ea2b6a36958
secret2012-12-18d01t03.flac:10999c6c6c71a8445c90a0324af83888
secret2012-12-18d01t04.flac:d0650f98c77af84f92306c1b2eb98780
secret2012-12-18d01t05.flac:c91ac1b29de5bcebbdd8f3e0628cf6b8
secret2012-12-18d01t06.flac:375a45a3750b19893de454ff4e29968a
secret2012-12-18d01t07.flac:ea78e29c2b82a697cffd21a4a9f2bae2
secret2012-12-18d01t08.flac:4414bce1f2d6d52bc5f1fcc7e3554637
secret2012-12-18d01t09.flac:1b03808c9d66cc265d6e138e746ba01c
secret2012-12-18d01t10.flac:93be2d69294a48b911439dbe3dc72280
secret2012-12-18d01t11.flac:1b62b1994a39e00f8b3c4b3546e0e1f9
secret2012-12-18d02t01.flac:dcf71b8049a32882718771032820ad47
secret2012-12-18d02t02.flac:16d3020a1044f370bd0d71dd42e3d3db
secret2012-12-18d02t03.flac:035132e69425ef48be047032cbed6c34
secret2012-12-18d02t04.flac:53dcfc52392cd3c4d3491c14845bc2f5
secret2012-12-18d02t05.flac:aa82433db34238af7f8d0cc808086c35
secret2012-12-18d02t06.flac:1bb9d80fe7babc628136524fb02e805d
secret2012-12-18d02t07.flac:f26509f1638d7188c10c5822b5c84f8b
secret2012-12-18d02t08.flac:a3420620724ec85ee7326284fd699cc6
secret2012-12-18d02t09.flac:4405adceb02d50ff47153f9d20896f71
secret2012-12-18d02t10.flac:840ceaa30307a5da12f1c3737fc59891
secret2012-12-18d02t11.flac:e3e054af55d73d6902b8f89e649b9798
secret2012-12-18d02t12.flac:b276064930ca5fa3f339d712fcbfba59
secret2012-12-18d02t13.flac:9a05275e7f5bfeb5a778ed177a30826e
secret2012-12-18d02t14.flac:813d0b10ebcfa8d0738918b2bfacccb0
secret2012-12-18d02t15.flac:c4dbfc595e62d84b56cddd9be15f7b3d
secret2012-12-18d02t16.flac:653f4a9c723ca978b17d358a95eda9ea
secret2012-12-18d02t17.flac:5928bd303132e82ad7e3389de3d0400f

Shntool

length expanded size cdr WAVE problems fmt ratio filename
1:57.02 20643548 B --- -- ---xx flac 0.3562 secret2012-12-18d01t01.flac
5:02.68 53432780 B --- -- ---xx flac 0.3900 secret2012-12-18d01t02.flac
5:55.22 62673788 B --- -- ---xx flac 0.4120 secret2012-12-18d01t03.flac
7:51.56 83216156 B --- -- ---xx flac 0.4231 secret2012-12-18d01t04.flac
7:03.23 74671340 B --- -- ---xx flac 0.5066 secret2012-12-18d01t05.flac
12:32.02 132657548 B --- -- ---xx flac 0.4826 secret2012-12-18d01t06.flac
5:11.24 54916892 B --- -- ---xx flac 0.4536 secret2012-12-18d01t07.flac
5:23.29 57045452 B --- -- ---xx flac 0.4322 secret2012-12-18d01t08.flac
4:42.05 49756604 B --- -- ---xx flac 0.4802 secret2012-12-18d01t09.flac
5:17.29 55987052 B --- -- ---xx flac 0.4045 secret2012-12-18d01t10.flac
2:42.30 28647404 B --- -- ---xx flac 0.4033 secret2012-12-18d01t11.flac
0:54.67 9683228 B --- -- ---xx flac 0.4034 secret2012-12-18d02t01.flac
4:52.55 51638204 B --- -- ---xx flac 0.4964 secret2012-12-18d02t02.flac
5:23.68 57137180 B --- -- ---xx flac 0.4205 secret2012-12-18d02t03.flac
5:05.05 53813804 B --- -- ---xx flac 0.5037 secret2012-12-18d02t04.flac
3:24.59 36124412 B --- -- ---xx flac 0.4178 secret2012-12-18d02t05.flac
5:53.59 62408012 B --- -- ---xx flac 0.5129 secret2012-12-18d02t06.flac
4:50.00 51156044 B --- -- ---xx flac 0.5799 secret2012-12-18d02t07.flac
5:53.07 62285708 B --- -- ---xx flac 0.5777 secret2012-12-18d02t08.flac
5:39.32 59874908 B --- -- ---xx flac 0.5429 secret2012-12-18d02t09.flac
12:27.20 131817884 B --- -- ---xx flac 0.5457 secret2012-12-18d02t10.flac
8:58.23 94957340 B --- -- ---xx flac 0.5512 secret2012-12-18d02t11.flac
5:55.48 62734940 B --- -- ---xx flac 0.5370 secret2012-12-18d02t12.flac
4:41.37 49655468 B --- -- ---xx flac 0.6251 secret2012-12-18d02t13.flac
1:28.02 15527948 B --- -- ---xx flac 0.6634 secret2012-12-18d02t14.flac
2:13.13 23491820 B --- -- ---xx flac 0.6302 secret2012-12-18d02t15.flac
0:44.15 7796924 B --- -- ---xx flac 0.6198 secret2012-12-18d02t16.flac
0:55.06 9716156 B --- -- ---xx flac 0.4567 secret2012-12-18d02t17.flac
142:59.56 1513468544 B 0.4942 (28 files)


















Checksumssecret2012-12-18d01t01.flac:31aee1e16a0fb0d712c5f13397acfc57
secret2012-12-18d01t02.flac:20700f42581033519f948ea2b6a36958
secret2012-12-18d01t03.flac:10999c6c6c71a8445c90a0324af83888
secret2012-12-18d01t04.flac:d0650f98c77af84f92306c1b2eb98780
secret2012-12-18d01t05.flac:c91ac1b29de5bcebbdd8f3e0628cf6b8
secret2012-12-18d01t06.flac:375a45a3750b19893de454ff4e29968a
secret2012-12-18d01t07.flac:ea78e29c2b82a697cffd21a4a9f2bae2
secret2012-12-18d01t08.flac:4414bce1f2d6d52bc5f1fcc7e3554637
secret2012-12-18d01t09.flac:1b03808c9d66cc265d6e138e746ba01c
secret2012-12-18d01t10.flac:93be2d69294a48b911439dbe3dc72280
secret2012-12-18d01t11.flac:1b62b1994a39e00f8b3c4b3546e0e1f9
secret2012-12-18d02t01.flac:dcf71b8049a32882718771032820ad47
secret2012-12-18d02t02.flac:16d3020a1044f370bd0d71dd42e3d3db
secret2012-12-18d02t03.flac:035132e69425ef48be047032cbed6c34
secret2012-12-18d02t04.flac:53dcfc52392cd3c4d3491c14845bc2f5
secret2012-12-18d02t05.flac:aa82433db34238af7f8d0cc808086c35
secret2012-12-18d02t06.flac:1bb9d80fe7babc628136524fb02e805d
secret2012-12-18d02t07.flac:f26509f1638d7188c10c5822b5c84f8b
secret2012-12-18d02t08.flac:a3420620724ec85ee7326284fd699cc6
secret2012-12-18d02t09.flac:4405adceb02d50ff47153f9d20896f71
secret2012-12-18d02t10.flac:840ceaa30307a5da12f1c3737fc59891
secret2012-12-18d02t11.flac:e3e054af55d73d6902b8f89e649b9798
secret2012-12-18d02t12.flac:b276064930ca5fa3f339d712fcbfba59
secret2012-12-18d02t13.flac:9a05275e7f5bfeb5a778ed177a30826e
secret2012-12-18d02t14.flac:813d0b10ebcfa8d0738918b2bfacccb0
secret2012-12-18d02t15.flac:c4dbfc595e62d84b56cddd9be15f7b3d
secret2012-12-18d02t16.flac:653f4a9c723ca978b17d358a95eda9ea
secret2012-12-18d02t17.flac:5928bd303132e82ad7e3389de3d0400f
Visibleno (dead)
TypeOther
Last seederLast activity 212 days, 08:19:47 ago
Size713.38 MB (748029365 Bytes)
Added2012-12-24 13:40:27
Views0
Hits172
Snatched22 times
Upped byzmanatl
Num files
[See full list]
29 files
Peers
[See full list]
0 seeders, 0 leechers = 0 peers total

No comments yet

Add a comment


http://etree.org : http://db.etree.org : http://forums.etree.org : http://wiki.etree.org : Legal : RSS Feed

Contents designed & maintained by the etree.org volunteers
1998-2014, etree.org, except where noted. All Rights Reserved.
Read our terms of service and privacy guidelines