bt.etree.org
etree.org Community Bittorrent Tracker
ArtistOther
ShowJeff Mosier And Friends Steve's Live Music Sandy Springs, Georgia 12/19/2012 (Schoeps CCM4V'S FOB)
Report this as
non-Trade-Friendly
Email us
Torrentmosier2012-12-19.flac16.torrent (click to download)
Downloads asmosier2012-12-19.flac16
Info hash92c9fd8d6f561a4e76c3f192a58d1877b003c895
DescriptionJeff Mosier And Friends
Streve's Live Music
Sandy Springs, Georgia
12/19/2012

Source: Schoeps CCM4V'S(din)>Lunatec V2>Benchmark AD2K>
Sound Devices 722 (24/48)
FOB/DFC/KFC/ZFC/AARP 9' From Stage, 6' High
DSP: Sound Devices 722>Sound Forge 9.0>CD Wave>flac(16)
Recorded By: Z-Man
Seeded By: Z-Man

Disc I

01 Jeff Mosier Banter
02 Wagon Wheel
03 No Worries
04 Tuning
05 Barton Hollow
06 Come On Up To The House
07 Someone Like You
08 If It Hadn't Been For Love
09 Stone Cold Love
10 Friend Of The Devil
11 Hallelujah
12 Demon Kitty Rag

Disc II

01 Jeff Banter/Tuning
02 Be Proud Of This Grave
03 You Get A Line, I'll Get A Pole
04 Gentle On My Mind
05 Black Muddy River
06 Archeology
07 The Times They Are A Changin'
08 Jeff Banter
09 On My Way

Disc III #3rd Set

01 Tuning
02 Old Man
03 Black Water
04 Wayfaring Stranger
05 Lovin' In My Baby's Eyes
06 Tuning
07 Ain't No Thing
08 Will The Circle Be Unbroken

# With Mark Michaelson On Guitar, Harmonica, And Vocals

Jeff Mosier - Banjo And Vocals
Matt Floyd Of Sage Hill String Band On Guitar And Vocals
Anna Brower Of Sage Hill String Band On Vocals
Steve Harris Of Sage Hill String Band on Fiddle

Flac Fingerprint

mosier2012-12-19d01t01.flac:211e8331b2bcd907744570760d008fbf
mosier2012-12-19d01t02.flac:d5dcc3b333c0c1acc2c00de6e6d8faf1
mosier2012-12-19d01t03.flac:058ae3966d44d2b7da6b30b3545ab2e1
mosier2012-12-19d01t04.flac:aeea8a6bd77c6e689d08f106533a8e54
mosier2012-12-19d01t05.flac:ba573965c4e84dd65a8bf5b988f5afc3
mosier2012-12-19d01t06.flac:84e0840ac91288c06ddf41202613e74c
mosier2012-12-19d01t07.flac:2f3d5d4bff265af701dbe49e62f7f1ae
mosier2012-12-19d01t08.flac:879afed0c4d3e287a942d9363ef8c2c7
mosier2012-12-19d01t09.flac:8f65f08884b3dfd775c25f5364c2846c
mosier2012-12-19d01t10.flac:1f77316a33f18dd5ad4d08f9dbc13809
mosier2012-12-19d01t11.flac:c97cfcb2adef06f1954347d880dfd2af
mosier2012-12-19d01t12.flac:e39fd94bb531a6429d097d500e6fdf6a
mosier2012-12-19d02t01.flac:1d75f290944ede880af02496ad93e056
mosier2012-12-19d02t02.flac:c071d160c17ccfe1062cf0b52d3ef4e9
mosier2012-12-19d02t03.flac:c0d6b3c2e15ef18b03d5fa0a0a54de1c
mosier2012-12-19d02t04.flac:5b763b05a3abe7f571e8c2049114e118
mosier2012-12-19d02t05.flac:e589ef3490c38d2e387bd5a03c60a2a0
mosier2012-12-19d02t06.flac:6b8112e4ebe8026787d93b1bf784150e
mosier2012-12-19d02t07.flac:eab1c871d92dd00f642133e91cd1b15f
mosier2012-12-19d02t08.flac:07d71de7ca0fbd8f9f4d7c67bff91b4a
mosier2012-12-19d02t09.flac:4d92180f1c881e8cddb9967b1ed12900
mosier2012-12-19d03t01.flac:572b7335c518dec4811448c809c3dcc9
mosier2012-12-19d03t02.flac:c387c9047063c30ce031736cafe85604
mosier2012-12-19d03t03.flac:62f657759bb283f17bd7071c01eabb50
mosier2012-12-19d03t04.flac:a102e02ea62d7c3a8cfdd3239c875113
mosier2012-12-19d03t05.flac:d979a9379ed9488f96f4d593ef10ca19
mosier2012-12-19d03t06.flac:4b4b7375e376e101684f90042cfed17d
mosier2012-12-19d03t07.flac:b5d2f798feb2cef3af039e2fb74d601f
mosier2012-12-19d03t08.flac:4206ac87c3e24dbd71712a310a6e5deb

Shntool

length expanded size cdr WAVE problems fmt ratio filename
1:24.40 14911724 B --- -- ---xx flac 0.3468 mosier2012-12-19d01t01.flac
5:35.10 59117564 B --- -- ---xx flac 0.4924 mosier2012-12-19d01t02.flac
4:10.17 44140028 B --- -- ---xx flac 0.4766 mosier2012-12-19d01t03.flac
1:19.67 14093228 B --- -- ---xx flac 0.3631 mosier2012-12-19d01t04.flac
4:23.47 46503788 B --- -- ---xx flac 0.4682 mosier2012-12-19d01t05.flac
4:08.17 43787228 B --- -- ---xx flac 0.4884 mosier2012-12-19d01t06.flac
6:28.30 68513804 B --- -- ---xx flac 0.4274 mosier2012-12-19d01t07.flac
6:06.55 64691804 B --- -- ---xx flac 0.4623 mosier2012-12-19d01t08.flac
4:17.22 45386588 B --- -- ---xx flac 0.4610 mosier2012-12-19d01t09.flac
5:44.06 60695756 B --- -- ---xx flac 0.4369 mosier2012-12-19d01t10.flac
5:55.59 62760812 B --- -- ---xx flac 0.3860 mosier2012-12-19d01t11.flac
5:13.06 55227356 B --- -- ---xx flac 0.5297 mosier2012-12-19d01t12.flac
3:11.49 33807692 B --- -- ---xx flac 0.3711 mosier2012-12-19d02t01.flac
4:56.10 52237964 B --- -- ---xx flac 0.4498 mosier2012-12-19d02t02.flac
9:59.27 105727148 B --- -- ---xx flac 0.5397 mosier2012-12-19d02t03.flac
6:31.26 69033596 B --- -- ---xx flac 0.4772 mosier2012-12-19d02t04.flac
10:41.46 113180636 B --- -- ---xx flac 0.4655 mosier2012-12-19d02t05.flac
6:39.10 70407164 B --- -- ---xx flac 0.4698 mosier2012-12-19d02t06.flac
8:54.33 94275260 B --- -- ---xx flac 0.4970 mosier2012-12-19d02t07.flac
2:22.53 25173500 B --- -- ---xx flac 0.3727 mosier2012-12-19d02t08.flac
6:34.15 69536924 B --- -- ---xx flac 0.5034 mosier2012-12-19d02t09.flac
1:10.68 12507980 B --- -- ---xx flac 0.3751 mosier2012-12-19d03t01.flac
4:51.01 51334796 B --- -- ---xx flac 0.5258 mosier2012-12-19d03t02.flac
8:25.15 89117324 B --- -- ---xx flac 0.4864 mosier2012-12-19d03t03.flac
9:06.05 96326204 B --- -- ---xx flac 0.4470 mosier2012-12-19d03t04.flac
4:32.31 48053756 B --- -- ---xx flac 0.4919 mosier2012-12-19d03t05.flac
3:23.18 35851580 B --- -- ---xx flac 0.3320 mosier2012-12-19d03t06.flac
4:44.45 50203484 B --- -- ---xx flac 0.5047 mosier2012-12-19d03t07.flac
5:46.46 61142636 B --- -- ---xx flac 0.5223 mosier2012-12-19d03t08.flac
156:37.49 1657747324 B 0.4691 (29 files)
Checksumsmosier2012-12-19d01t01.flac:211e8331b2bcd907744570760d008fbf
mosier2012-12-19d01t02.flac:d5dcc3b333c0c1acc2c00de6e6d8faf1
mosier2012-12-19d01t03.flac:058ae3966d44d2b7da6b30b3545ab2e1
mosier2012-12-19d01t04.flac:aeea8a6bd77c6e689d08f106533a8e54
mosier2012-12-19d01t05.flac:ba573965c4e84dd65a8bf5b988f5afc3
mosier2012-12-19d01t06.flac:84e0840ac91288c06ddf41202613e74c
mosier2012-12-19d01t07.flac:2f3d5d4bff265af701dbe49e62f7f1ae
mosier2012-12-19d01t08.flac:879afed0c4d3e287a942d9363ef8c2c7
mosier2012-12-19d01t09.flac:8f65f08884b3dfd775c25f5364c2846c
mosier2012-12-19d01t10.flac:1f77316a33f18dd5ad4d08f9dbc13809
mosier2012-12-19d01t11.flac:c97cfcb2adef06f1954347d880dfd2af
mosier2012-12-19d01t12.flac:e39fd94bb531a6429d097d500e6fdf6a
mosier2012-12-19d02t01.flac:1d75f290944ede880af02496ad93e056
mosier2012-12-19d02t02.flac:c071d160c17ccfe1062cf0b52d3ef4e9
mosier2012-12-19d02t03.flac:c0d6b3c2e15ef18b03d5fa0a0a54de1c
mosier2012-12-19d02t04.flac:5b763b05a3abe7f571e8c2049114e118
mosier2012-12-19d02t05.flac:e589ef3490c38d2e387bd5a03c60a2a0
mosier2012-12-19d02t06.flac:6b8112e4ebe8026787d93b1bf784150e
mosier2012-12-19d02t07.flac:eab1c871d92dd00f642133e91cd1b15f
mosier2012-12-19d02t08.flac:07d71de7ca0fbd8f9f4d7c67bff91b4a
mosier2012-12-19d02t09.flac:4d92180f1c881e8cddb9967b1ed12900
mosier2012-12-19d03t01.flac:572b7335c518dec4811448c809c3dcc9
mosier2012-12-19d03t02.flac:c387c9047063c30ce031736cafe85604
mosier2012-12-19d03t03.flac:62f657759bb283f17bd7071c01eabb50
mosier2012-12-19d03t04.flac:a102e02ea62d7c3a8cfdd3239c875113
mosier2012-12-19d03t05.flac:d979a9379ed9488f96f4d593ef10ca19
mosier2012-12-19d03t06.flac:4b4b7375e376e101684f90042cfed17d
mosier2012-12-19d03t07.flac:b5d2f798feb2cef3af039e2fb74d601f
mosier2012-12-19d03t08.flac:4206ac87c3e24dbd71712a310a6e5deb
TypeOther
Last seederLast activity 102 days, 13:33:55 ago
Size741.64 MB (777662883 Bytes)
Added2012-12-24 21:44:55
Views0
Hits180
Snatched34 times
Upped byzmanatl
Num files30 files
File List
[Hide list]
filenamesizemd5
mosier2012-12-19d02t03.flac54.42 MBN/A
mosier2012-12-19d02t05.flac50.25 MBN/A
mosier2012-12-19d02t07.flac44.68 MBN/A
mosier2012-12-19d03t03.flac41.34 MBN/A
mosier2012-12-19d03t04.flac41.07 MBN/A
mosier2012-12-19d02t09.flac33.38 MBN/A
mosier2012-12-19d02t06.flac31.54 MBN/A
mosier2012-12-19d02t04.flac31.42 MBN/A
mosier2012-12-19d03t08.flac30.46 MBN/A
mosier2012-12-19d01t08.flac28.52 MBN/A
mosier2012-12-19d01t07.flac27.93 MBN/A
mosier2012-12-19d01t12.flac27.90 MBN/A
mosier2012-12-19d01t02.flac27.76 MBN/A
mosier2012-12-19d03t02.flac25.74 MBN/A
mosier2012-12-19d01t10.flac25.29 MBN/A
mosier2012-12-19d03t07.flac24.16 MBN/A
mosier2012-12-19d01t11.flac23.11 MBN/A
mosier2012-12-19d03t05.flac22.54 MBN/A
mosier2012-12-19d02t02.flac22.41 MBN/A
mosier2012-12-19d01t05.flac20.76 MBN/A
mosier2012-12-19d01t06.flac20.40 MBN/A
mosier2012-12-19d01t03.flac20.06 MBN/A
mosier2012-12-19d01t09.flac19.95 MBN/A
mosier2012-12-19d02t01.flac11.97 MBN/A
mosier2012-12-19d03t06.flac11.35 MBN/A
mosier2012-12-19d02t08.flac8.95 MBN/A
mosier2012-12-19d01t01.flac4.93 MBN/A
mosier2012-12-19d01t04.flac4.88 MBN/A
mosier2012-12-19d03t01.flac4.47 MBN/A
mosier2012-12-19.textfile.txt5.8 kBN/A
Peers
[See full list]
1 seeder, 0 leechers = 1 peer total

No comments yet

Add a comment


http://etree.org : http://db.etree.org : http://forums.etree.org : http://wiki.etree.org : Legal : RSS Feed

Contents designed & maintained by the etree.org volunteers
1998-2014, etree.org, except where noted. All Rights Reserved.
Read our terms of service and privacy guidelines