bt.etree.org
etree.org Community Bittorrent Tracker
ArtistOther
ShowSmokey's Farmland Band Red Light Cafe Atlanta, Georgia 12/20/2012 (Schoeps CCM4V'S FOB)
Report this as
non-Trade-Friendly
Email us
Torrentsfb2012-12-20.flac16.torrent (click to download)
Downloads assfb2012-12-20.flac16
Info hash6ebff84545ffcd118a54f974758ba86d223c56af
DescriptionSmokey's Farmland Band
Red Light Cafe
Atlanta, Georgia
12/20/2012

Source: Schoeps CCM4V'S(din)>Lunatec V2>Benchmark AD2K>
Sound Devices 722 (24/48)
FOB/DFC/KFC/ZFC/AARP 3' From Stage, 7' High
DSP: Sound Devices 722>Sound Forge 9.0>CD Wave>flac(16)
Recorded By: Z-Man
Seeded By: Z-Man

Disc I 1st Set

01 Greeting/Tuning
02 Angelina Baker
03 Nellie Cain
04 Rock In My Flow
05 Tear My Stillhouse Down
06 Trifecta
07 *East Tennessee Blues
08 *Lay Me A Pallet on Your Floor
09 *Act Naturally
10 *?
11 *Let Em Go On Mama
12 *Catch Your Breath

Disc II 2nd Set

01 Banter
02 *Too Much Whiskey
03 *One More Day
04 **?
05 *#How Mountain Girls Can Love
06 *Pray For Me
07 *Minor Swing
08 *#@Rollin' In My Sweet Baby's Arms
09 *@^Side Show Blues
10 *+Closin' Time
11 *+891160

* With David Stevens On Banjo And Vocals
# With Michael Goot On Vocals
@ With Shawn Spencer Of Seven Handle Circus On Guitar And Vocals
^ With Michael Goot On Percussion
+ With Richard ? On Mandolin

Rurik Nunan - Fiddle And Vocals
Justin Roberts - Bass And Vocals
Ian Newberry - Guitar
Trey Gibbs - Mandolin And Vocals

Flac Fingerprint

sfb2012-12-20d01t01.flac:77c6501304b198b25dc255fd36fac22f
sfb2012-12-20d01t02.flac:360e746ae12324a3ebcbf2bd68fe8571
sfb2012-12-20d01t03.flac:0b5d28cc4a238f19d198bb3b4693ca50
sfb2012-12-20d01t04.flac:93ca88468779a271cbf32a617b4b05ea
sfb2012-12-20d01t05.flac:d9c32f3747555ad46eb50d8a42f6e593
sfb2012-12-20d01t06.flac:c675b11c4b3b121d0910bdc4200acc6e
sfb2012-12-20d01t07.flac:cec73455f96a842e0e0f45cd5b132c41
sfb2012-12-20d01t08.flac:8034e1b38c706e245bf41e89921e6e88
sfb2012-12-20d01t09.flac:25925f452ea0fbcd5b25bfeffbb429e7
sfb2012-12-20d01t10.flac:7fa0a823a877d2a07031295d29cecfc1
sfb2012-12-20d01t11.flac:369f7b76be73c90560dc83249e1b2ca3
sfb2012-12-20d01t12.flac:a2496bc4e879463de9619efa08ae698e
sfb2012-12-20d02t01.flac:9543c65ba1095ed1e66b2ddf9de549e1
sfb2012-12-20d02t02.flac:6b85afed5d9ec556f4bb2fb8bf6e2e71
sfb2012-12-20d02t03.flac:48e945a7faf8d01cda2b648a2766853b
sfb2012-12-20d02t04.flac:9059d892b059adaa1de2f44641f45424
sfb2012-12-20d02t05.flac:10c29b141fecbc403e57765882e7f42d
sfb2012-12-20d02t06.flac:f2f076a7f584b6599b7fdca5b2742667
sfb2012-12-20d02t07.flac:1c583f2cf68602a73c59effaaa55d41c
sfb2012-12-20d02t08.flac:b7621924379c00fe1d3eccf2198c7283
sfb2012-12-20d02t09.flac:a39e0cf82205d70d624e07b165548ca6
sfb2012-12-20d02t10.flac:d4f71e2f90c4aaf3f1b556cc0279e3ff
sfb2012-12-20d02t11.flac:70538ea38d8c5411d512a48a7c06f999

Shntool

length expanded size cdr WAVE problems fmt ratio filename
1:16.24 13462892 B --- -- ---xx flac 0.3238 sfb2012-12-20d01t01.flac
5:18.54 56222252 B --- -- ---xx flac 0.3954 sfb2012-12-20d01t02.flac
3:35.50 38043644 B --- -- ---xx flac 0.4017 sfb2012-12-20d01t03.flac
4:48.00 50803244 B --- -- ---xx flac 0.4172 sfb2012-12-20d01t04.flac
5:25.47 57440588 B --- -- ---xx flac 0.3823 sfb2012-12-20d01t05.flac
4:32.13 48011420 B --- -- ---xx flac 0.4107 sfb2012-12-20d01t06.flac
3:32.28 37462700 B --- -- ---xx flac 0.4314 sfb2012-12-20d01t07.flac
6:09.26 65152796 B --- -- ---xx flac 0.4116 sfb2012-12-20d01t08.flac
4:22.16 46254476 B --- -- ---xx flac 0.4249 sfb2012-12-20d01t09.flac
4:08.30 43817804 B --- -- ---xx flac 0.4054 sfb2012-12-20d01t10.flac
5:03.07 53465708 B --- -- ---xx flac 0.3976 sfb2012-12-20d01t11.flac
4:51.21 51381836 B --- -- ---xx flac 0.4119 sfb2012-12-20d01t12.flac
0:32.12 5673068 B --- -- ---xx flac 0.2569 sfb2012-12-20d02t01.flac
3:57.35 41889164 B --- -- ---xx flac 0.3976 sfb2012-12-20d02t02.flac
6:28.53 68567900 B --- -- ---xx flac 0.3871 sfb2012-12-20d02t03.flac
5:15.21 55615436 B --- -- ---xx flac 0.3671 sfb2012-12-20d02t04.flac
3:57.26 41867996 B --- -- ---xx flac 0.4162 sfb2012-12-20d02t05.flac
5:52.66 62248076 B --- -- ---xx flac 0.3590 sfb2012-12-20d02t06.flac
7:26.14 78707372 B --- -- ---xx flac 0.3600 sfb2012-12-20d02t07.flac
4:01.05 42524204 B --- -- ---xx flac 0.4604 sfb2012-12-20d02t08.flac
7:27.47 78961388 B --- -- ---xx flac 0.4170 sfb2012-12-20d02t09.flac
4:59.68 52903580 B --- -- ---xx flac 0.3568 sfb2012-12-20d02t10.flac
5:45.71 61025036 B --- -- ---xx flac 0.4068 sfb2012-12-20d02t11.flac
108:47.59 1151502580 B 0.3968 (23 files)

















Checksumssfb2012-12-20d01t01.flac:77c6501304b198b25dc255fd36fac22f
sfb2012-12-20d01t02.flac:360e746ae12324a3ebcbf2bd68fe8571
sfb2012-12-20d01t03.flac:0b5d28cc4a238f19d198bb3b4693ca50
sfb2012-12-20d01t04.flac:93ca88468779a271cbf32a617b4b05ea
sfb2012-12-20d01t05.flac:d9c32f3747555ad46eb50d8a42f6e593
sfb2012-12-20d01t06.flac:c675b11c4b3b121d0910bdc4200acc6e
sfb2012-12-20d01t07.flac:cec73455f96a842e0e0f45cd5b132c41
sfb2012-12-20d01t08.flac:8034e1b38c706e245bf41e89921e6e88
sfb2012-12-20d01t09.flac:25925f452ea0fbcd5b25bfeffbb429e7
sfb2012-12-20d01t10.flac:7fa0a823a877d2a07031295d29cecfc1
sfb2012-12-20d01t11.flac:369f7b76be73c90560dc83249e1b2ca3
sfb2012-12-20d01t12.flac:a2496bc4e879463de9619efa08ae698e
sfb2012-12-20d02t01.flac:9543c65ba1095ed1e66b2ddf9de549e1
sfb2012-12-20d02t02.flac:6b85afed5d9ec556f4bb2fb8bf6e2e71
sfb2012-12-20d02t03.flac:48e945a7faf8d01cda2b648a2766853b
sfb2012-12-20d02t04.flac:9059d892b059adaa1de2f44641f45424
sfb2012-12-20d02t05.flac:10c29b141fecbc403e57765882e7f42d
sfb2012-12-20d02t06.flac:f2f076a7f584b6599b7fdca5b2742667
sfb2012-12-20d02t07.flac:1c583f2cf68602a73c59effaaa55d41c
sfb2012-12-20d02t08.flac:b7621924379c00fe1d3eccf2198c7283
sfb2012-12-20d02t09.flac:a39e0cf82205d70d624e07b165548ca6
sfb2012-12-20d02t10.flac:d4f71e2f90c4aaf3f1b556cc0279e3ff
sfb2012-12-20d02t11.flac:70538ea38d8c5411d512a48a7c06f999
Visibleno (dead)
TypeOther
Last seederLast activity 128 days, 12:13:07 ago
Size435.79 MB (456957141 Bytes)
Added2012-12-24 23:31:17
Views0
Hits155
Snatched18 times
Upped byzmanatl
Num files
[See full list]
24 files
Peers
[See full list]
0 seeders, 0 leechers = 0 peers total

No comments yet

Add a comment


http://etree.org : http://db.etree.org : http://forums.etree.org : http://wiki.etree.org : Legal : RSS Feed

Contents designed & maintained by the etree.org volunteers
1998-2014, etree.org, except where noted. All Rights Reserved.
Read our terms of service and privacy guidelines