bt.etree.org
etree.org Community Bittorrent Tracker
ArtistOther
ShowTruett Lollis Band Peachtree Tavern Atlanta, Georgia 12/21/2012 (Schoeps CCM4V'S FOB)
Report this as
non-Trade-Friendly
Email us
Torrenttruett2012-12-21.flac16.torrent (click to download)
Downloads astruett2012-12-21.flac16
Info hashbd795cb715b9d92b11c79b17fdd781686a2172d5
DescriptionTruett lollis Band
Peachtree Tavern
Atlanta, Georgia
12/21/2012

Source: Schoeps CCM4V'S(din)>Lunatec V2>Benchmark AD2K>
Sound Devices 722 (24/48)
FOB/DFC/KFC/ZFC/AARP 3' From Stage, 7' High
DSP: Sound Devices 722>Sound Forge 9.0>CD Wave>flac(16)
Recorded By: Z-Man
Seeded By: Z-Man

Disc I

01 ? >
02 I'm Goin' Down
03 ?
04 The Way I See You
05 It Could Be You
06 Scandalous
07 ?
08 Sometimes Love Ain't Enough
09 Get Out my Life Woman >
10 Like I Know >
11 Get Out My Life Woman
12 Little Wing

Truett Lollis - Guitar And Vocals
Jonathan Norwood - Bass And Vocals
Jody White - Drums
Tony Aricci - Percussion

Flac Fingerprint

truett2012-12-21d01t01.flac:9b382f2aa41938febdd752b6e5eae0fd
truett2012-12-21d01t02.flac:78fd6181cf58a91287c835aa85190616
truett2012-12-21d01t03.flac:906910b79b2db7657b359b32a8e138ea
truett2012-12-21d01t04.flac:6d2ef0613eef26f8684da9b182e8ae93
truett2012-12-21d01t05.flac:6c66d9178cf5e6bb118f6e650f1cfe4b
truett2012-12-21d01t06.flac:856e017da6953b95d69785fecb3b60c3
truett2012-12-21d01t07.flac:bce8faa1933179e269574dea015ccbfe
truett2012-12-21d01t08.flac:773667743e9c0dcfde9de6c63cd2c51a
truett2012-12-21d01t09.flac:e3d7490c4f600765575c4e9cc5513fe1
truett2012-12-21d01t10.flac:08c1555aa42c4bc60565e4ed71e50a55
truett2012-12-21d01t11.flac:2fd51435c5c9f8300b74d0ffe6fbe9eb
truett2012-12-21d01t12.flac:16a7f9c45e2a152a69687034d8d07a82

Shntool

length expanded size cdr WAVE problems fmt ratio filename
3:59.51 42279596 B --- -- ---xx flac 0.5854 truett2012-12-21d01t01.flac
4:19.22 45739388 B --- -- ---xx flac 0.5885 truett2012-12-21d01t02.flac
3:59.59 42298412 B --- -- ---xx flac 0.5438 truett2012-12-21d01t03.flac
4:50.12 51184268 B --- -- ---xx flac 0.4527 truett2012-12-21d01t04.flac
3:56.00 41630444 B --- -- ---xx flac 0.5102 truett2012-12-21d01t05.flac
7:54.52 83735948 B --- -- ---xx flac 0.5271 truett2012-12-21d01t06.flac
5:01.73 53268140 B --- -- ---xx flac 0.5518 truett2012-12-21d01t07.flac
5:14.28 55455500 B --- -- ---xx flac 0.4979 truett2012-12-21d01t08.flac
2:18.74 24517292 B --- -- ---xx flac 0.5209 truett2012-12-21d01t09.flac
2:34.13 27196220 B --- -- ---xx flac 0.5704 truett2012-12-21d01t10.flac
3:01.54 32055452 B --- -- ---xx flac 0.4626 truett2012-12-21d01t11.flac
7:48.09 82576412 B --- -- ---xx flac 0.4800 truett2012-12-21d01t12.flac
54:58.72 581937072 B 0.5206 (12 files)














Checksumstruett2012-12-21d01t01.flac:9b382f2aa41938febdd752b6e5eae0fd
truett2012-12-21d01t02.flac:78fd6181cf58a91287c835aa85190616
truett2012-12-21d01t03.flac:906910b79b2db7657b359b32a8e138ea
truett2012-12-21d01t04.flac:6d2ef0613eef26f8684da9b182e8ae93
truett2012-12-21d01t05.flac:6c66d9178cf5e6bb118f6e650f1cfe4b
truett2012-12-21d01t06.flac:856e017da6953b95d69785fecb3b60c3
truett2012-12-21d01t07.flac:bce8faa1933179e269574dea015ccbfe
truett2012-12-21d01t08.flac:773667743e9c0dcfde9de6c63cd2c51a
truett2012-12-21d01t09.flac:e3d7490c4f600765575c4e9cc5513fe1
truett2012-12-21d01t10.flac:08c1555aa42c4bc60565e4ed71e50a55
truett2012-12-21d01t11.flac:2fd51435c5c9f8300b74d0ffe6fbe9eb
truett2012-12-21d01t12.flac:16a7f9c45e2a152a69687034d8d07a82
TypeOther
Last seederLast activity 109 days, 01:44:31 ago
Size288.93 MB (302969808 Bytes)
Added2012-12-25 00:53:24
Views0
Hits165
Snatched14 times
Upped byzmanatl
Num files
[See full list]
13 files
Seeders
[Hide list]
0 Seeder(s)
Leechers
[Hide list]
0 Leecher(s)

No comments yet

Add a comment


http://etree.org : http://db.etree.org : http://forums.etree.org : http://wiki.etree.org : Legal : RSS Feed

Contents designed & maintained by the etree.org volunteers
1998-2014, etree.org, except where noted. All Rights Reserved.
Read our terms of service and privacy guidelines