bt.etree.org
etree.org Community Bittorrent Tracker
ArtistGrateful Dead
Showgd82-07-27.109780.mtx.sirmick.sbeok.t-flac16
Report this as
non-Trade-Friendly
Email us
Torrentgd82-07-27.109780.mtx.sirmick.sbeok.t-flac16.torrent (click to download)
Downloads asgd82-07-27.109780.mtx.sirmick.sbeok.t-flac16
Info hash8ea509d64017645bd6714ba302e2fafd025b33ef
db linkhttp://db.etree.org/shn/109780 | Show | Source
DescriptionThis is a tagged version of shnid: 109780

Grateful Dead
July 27, 1982
Red Rocks Amphitheater,
Morrison, CO

Matrix 60% soundboard/40% audience

sources:

1 - SBD>Cass/1>DAT>HD-P2>Soundforge 6.0>Flac Frontend>FLAC (shnid 78746)
Tranfer by Jake Clemens

2 - (FOB) Sennheiser 421 -> Cassette Master (Sony TC-D5M/Maxell UDXLII-C90/Dolby B) (shnid 102570)
Transfers and Mastering By Charlie Miller
_____________________________________________________________________________________

--Set 1--
101-d1t01 - Jack Straw ->
102-d1t02 - Sugaree
103-d1t03 - On the Road Again
104-d1t04 - It Must Have Been the Roses
105-d1t05 - Me & My Uncle ->
106-d1t06 - Big River
107-d1t07 - Peggy-O ->
108-d1t08 - Little Red Rooster
109-d1t09 - China Cat Sunflower ->
110-d1t10 - I Know You Rider

--Set 2--
201-d2t01 - Tuning
202-d2t02 - Playing in the Band ->
203-d2t03 - Terrapin Station ->
204-d2t04 - Playing in the Band Jam ->
205-d2t05 - Drums ->
206-d2t06 - Space ->
207-d2t07 - The Wheel ->
208-d2t08 - The Other One ->
209-d2t09 - Stella Blue ->
210-d2t10 - Playing in the Band

--Encore--
211-d2t11 - U.S. Blues
_____________________________________________________________________________________

Comments:
For Dave from Sugarmegs, who suggested this project.

These two sources compliment each other very well. The soundboard has crisp
vocals which the audience recording lacks, and the audience has a better high
end than the soundboard.

Thanks to the tapers and seeders who made this possible.

edited and matrixed
SIRMick
September 2010
_____________________________________________________________________________________

Tagging notes:
Show information is embedded within the header of each flac file.
It will display on any player capable of directly playing flac
files. If converted to wav during processing, all tags will be
stripped, however audio data will remain unaffected. If you must
transcode to a lossy format, do so directly Flac > Lossy.
Use ffp to validate audio integrity.
Md5 values will change if tagging is altered.
B. Proctor 10-23-10
_____________________________________________________________________________________


shntool output:

length expanded size cdr WAVE problems fmt ratio filename
5:30.24 58268492 B --- -- ---xx flac 0.6244 gd1982-07-27d1t01.flac
10:26.06 110440556 B --- -- ---xx flac 0.6181 gd1982-07-27d1t02.flac
4:24.34 46649612 B --- -- ---xx flac 0.6052 gd1982-07-27d1t03.flac
6:03.25 64092044 B --- -- ---xx flac 0.5899 gd1982-07-27d1t04.flac
2:57.43 31323980 B --- -- ---xx flac 0.6389 gd1982-07-27d1t05.flac
5:28.12 57887468 B --- -- ---xx flac 0.6520 gd1982-07-27d1t06.flac
6:29.02 68624348 B --- -- ---xx flac 0.5949 gd1982-07-27d1t07.flac
7:37.47 80725388 B --- -- ---xx flac 0.6308 gd1982-07-27d1t08.flac
5:22.57 56934908 B --- -- ---xx flac 0.6412 gd1982-07-27d1t09.flac
5:55.21 62671436 B --- -- ---xx flac 0.6481 gd1982-07-27d1t10.flac
1:38.72 17456588 B --- -- ---xx flac 0.5273 gd1982-07-27d2t01.flac
10:13.48 108246140 B --- -- ---xx flac 0.6510 gd1982-07-27d2t02.flac
11:49.54 125194652 B --- -- ---xx flac 0.6498 gd1982-07-27d2t03.flac
5:55.19 62666732 B --- -- ---xx flac 0.6559 gd1982-07-27d2t04.flac
6:21.33 67286060 B --- -- ---xx flac 0.5773 gd1982-07-27d2t05.flac
5:58.29 63219452 B --- -- ---xx flac 0.5321 gd1982-07-27d2t06.flac
5:30.25 58270844 B --- -- ---xx flac 0.6363 gd1982-07-27d2t07.flac
8:19.38 88113020 B --- -- ---xx flac 0.6388 gd1982-07-27d2t08.flac
9:09.28 96909500 B --- -- ---xx flac 0.5882 gd1982-07-27d2t09.flac
4:07.68 43730780 B --- -- ---xx flac 0.6134 gd1982-07-27d2t10.flac
5:31.26 58449596 B --- -- ---xx flac 0.6608 gd1982-07-27d2t11.flac
134:50.36 1427161596 B 0.6220 (21 files)

flac fingerprints:

gd1982-07-27d1t01.flac:85d669d8c9a998a1c769510c1b3fcf54
gd1982-07-27d1t02.flac:fbcf4148716b6e1336e6d457b6c81362
gd1982-07-27d1t03.flac:32fdce9d55dbcb917837002aafbf7cb4
gd1982-07-27d1t04.flac:0ca108f8616414acd77dd4a5b9256d1f
gd1982-07-27d1t05.flac:ba7de515d9ad33a2b2ea299f9905ccc5
gd1982-07-27d1t06.flac:772da2bbe4c77dbd167575c810a6a555
gd1982-07-27d1t07.flac:219c6a92d474d5f9068c5cc4470ba216
gd1982-07-27d1t08.flac:ed9dd16b482f6086d1ecdfcf59237da7
gd1982-07-27d1t09.flac:46a167a62fd77271cb16e703b474de8b
gd1982-07-27d1t10.flac:ca03c74cbbf7e687bac6d9985739c1a4
gd1982-07-27d2t01.flac:e72ef992ddd76c4ff552b6d11d161c1f
gd1982-07-27d2t02.flac:b8bef4c0f7d679718ec63eba96bdd332
gd1982-07-27d2t03.flac:104d7d780d25dc379f2ff28cfb93857a
gd1982-07-27d2t04.flac:8dc316fd20946bff85bcf796554dddc4
gd1982-07-27d2t05.flac:30bb7cdff0f3c10750b7a9982f41f3f3
gd1982-07-27d2t06.flac:57e2abe0b4f3adb036707f8e392ab214
gd1982-07-27d2t07.flac:e4c9562e4957231d8e00fe0243a773f3
gd1982-07-27d2t08.flac:51dcf08e946f5b021ad0c40d46b82d94
gd1982-07-27d2t09.flac:effff330492ea3374233333159f28b0c
gd1982-07-27d2t10.flac:d012898a496d756c77e13ff4590c0ab6
gd1982-07-27d2t11.flac:8eeae23726100e0efbe4cd7989c8445d
Checksumsgd1982-07-27d1t01.flac:85d669d8c9a998a1c769510c1b3fcf54
gd1982-07-27d1t02.flac:fbcf4148716b6e1336e6d457b6c81362
gd1982-07-27d1t03.flac:32fdce9d55dbcb917837002aafbf7cb4
gd1982-07-27d1t04.flac:0ca108f8616414acd77dd4a5b9256d1f
gd1982-07-27d1t05.flac:ba7de515d9ad33a2b2ea299f9905ccc5
gd1982-07-27d1t06.flac:772da2bbe4c77dbd167575c810a6a555
gd1982-07-27d1t07.flac:219c6a92d474d5f9068c5cc4470ba216
gd1982-07-27d1t08.flac:ed9dd16b482f6086d1ecdfcf59237da7
gd1982-07-27d1t09.flac:46a167a62fd77271cb16e703b474de8b
gd1982-07-27d1t10.flac:ca03c74cbbf7e687bac6d9985739c1a4
gd1982-07-27d2t01.flac:e72ef992ddd76c4ff552b6d11d161c1f
gd1982-07-27d2t02.flac:b8bef4c0f7d679718ec63eba96bdd332
gd1982-07-27d2t03.flac:104d7d780d25dc379f2ff28cfb93857a
gd1982-07-27d2t04.flac:8dc316fd20946bff85bcf796554dddc4
gd1982-07-27d2t05.flac:30bb7cdff0f3c10750b7a9982f41f3f3
gd1982-07-27d2t06.flac:57e2abe0b4f3adb036707f8e392ab214
gd1982-07-27d2t07.flac:e4c9562e4957231d8e00fe0243a773f3
gd1982-07-27d2t08.flac:51dcf08e946f5b021ad0c40d46b82d94
gd1982-07-27d2t09.flac:effff330492ea3374233333159f28b0c
gd1982-07-27d2t10.flac:d012898a496d756c77e13ff4590c0ab6
gd1982-07-27d2t11.flac:8eeae23726100e0efbe4cd7989c8445d
TypeGrateful Dead
Last seederLast activity 31:55 ago
Size846.62 MB (887744276 Bytes)
Added2012-12-25 08:02:24
Views1
Hits550
Snatched344 times
Upped bySpiralLightofVenus
Num files
[See full list]
25 files
Peers
[See full list]
4 seeders, 0 leechers = 4 peers total

Add a comment

SpiralLightofVenus 2012-12-25 08:04:06
Peace on Earth everyone, everywhere.
Hal R 2012-12-25 10:15:08
Thank you for all of the 82 shows. Peace to you as well.

Add a comment


http://etree.org : http://db.etree.org : http://forums.etree.org : http://wiki.etree.org : Legal : RSS Feed

Contents designed & maintained by the etree.org volunteers
1998-2014, etree.org, except where noted. All Rights Reserved.
Read our terms of service and privacy guidelines