bt.etree.org
etree.org Community Bittorrent Tracker
ArtistGrateful Dead
Showgd82-07-27.102570.fob-senn421.wise-miller.t-flac16
Report this as
non-Trade-Friendly
Email us
Torrentgd82-07-27.102570.fob-senn421.wise-miller.t-flac16.torrent (click to download)
Downloads asgd82-07-27.102570.fob-senn421.wise-miller.t-flac16
Info hash3d94483598fb5c0dc91216656e5e245ea5d37034
db linkhttp://db.etree.org/shn/102570 | Show | Source
DescriptionThis is a tagged version of shnid: 102570

Grateful Dead
July 27, 1982
Red Rocks Amphitheatre
Morrison, CO

Recording Info:
(FOB) Sennheiser 421 -> Cassette Master (Sony TC-D5M/Maxell UDXLII-C90/Dolby B)

Transfer Info:
Cassette Master (Nakamichi DR-1/Dolby B) -> Sound Devices 744T (24bit/96k) ->
Adobe Audition v1.5 -> Samplitude Professional v10.22 -> FLAC/16
(2 Discs Audio / 2 Discs FLAC)

All Transfers and Mastering By Charlie Miller
charliemiller87@earthlink.net
November 15, 2009

Notes:
-- Recorded By Jim Wise
-- Thanks to Jim Wise for lending me his master cassettes
-- Thanks to Joe B. Jones for his help with the pitch correction
_________________________________________________________________________________

--Set 1--
101-d1t01 - Jack Straw ->
102-d1t02 - Sugaree
103-d1t03 - On the Road Again
104-d1t04 - It Must Have Been the Roses
105-d1t05 - Me & My Uncle ->
106-d1t06 - Big River
107-d1t07 - Peggy-O ->
108-d1t08 - Little Red Rooster
109-d1t09 - China Cat Sunflower ->
110-d1t10 - I Know You Rider

--Set 2--
201-d2t01 - Tuning
202-d2t02 - Playing in the Band ->
203-d2t03 - Terrapin Station ->
204-d2t04 - Playing in the Band Jam ->
205-d2t05 - Drums ->
206-d2t06 - Space ->
207-d2t07 - The Wheel ->
208-d2t08 - The Other One ->
209-d2t09 - Stella Blue ->
210-d2t10 - Playing in the Band

--Encore--
211-d2t11 - U.S. Blues
_________________________________________________________________________________

Tagging notes:
Show information is embedded within the header of each flac file.
It will display on any player capable of directly playing flac
files. If converted to wav during processing, all tags will be
stripped, however audio data will remain unaffected. If you must
transcode to a lossy format, do so directly Flac > Lossy.
Use ffp to validate audio integrity.
Md5 values will change if tagging is altered.
B. Proctor 10-23-10
_________________________________________________________________________________

SHNTOOL OUTPUT:
length expanded size cdr WAVE problems filename
5:30.19 58256732 --- -- ----- gd82-07-27d1t01.wav
10:26.06 110440556 --- -- ----- gd82-07-27d1t02.wav
4:38.21 49088636 --- -- ----- gd82-07-27d1t03.wav
6:03.08 64052060 --- -- ----- gd82-07-27d1t04.wav
2:57.50 31340444 --- -- ----- gd82-07-27d1t05.wav
5:27.22 57734588 --- -- ----- gd82-07-27d1t06.wav
6:29.69 68781932 --- -- ----- gd82-07-27d1t07.wav
7:36.67 80596028 --- -- ----- gd82-07-27d1t08.wav
5:23.50 57094844 --- -- ----- gd82-07-27d1t09.wav
5:56.11 62824316 --- -- ----- gd82-07-27d1t10.wav
1:41.29 17884652 --- -- ----- gd82-07-27d2t01.wav
10:12.02 107961548 --- -- ----- gd82-07-27d2t02.wav
11:49.58 125204060 --- -- ----- gd82-07-27d2t03.wav
5:56.07 62814908 --- -- ----- gd82-07-27d2t04.wav
6:10.41 65364476 --- -- ----- gd82-07-27d2t05.wav
5:58.30 63221804 --- -- ----- gd82-07-27d2t06.wav
5:30.49 58327292 --- -- ----- gd82-07-27d2t07.wav
8:19.06 88037756 --- -- ----- gd82-07-27d2t08.wav
9:09.33 96921260 --- -- ----- gd82-07-27d2t09.wav
4:04.40 43135724 --- -- ----- gd82-07-27d2t10.wav
5:31.62 58534268 --- -- ----- gd82-07-27d2t11.wav
134:53.05 1427617884 B (totals for 21 files)
Checksumsgd82-07-27d1t01.flac:a899e25d516629a1e5a7cc83e61255b3
gd82-07-27d1t02.flac:76616f0709affeda631522396bfe9ccd
gd82-07-27d1t03.flac:67e6532e5fb7b176e4ea7dc13b08fd6a
gd82-07-27d1t04.flac:bad750f216b166b2e8346132cb7f68cd
gd82-07-27d1t05.flac:31d02a896d457f3b1f2a0bc3e84846c2
gd82-07-27d1t06.flac:dbe3b344335a471500cadb5ed106de71
gd82-07-27d1t07.flac:9450558f525a203f072c141119484c58
gd82-07-27d1t08.flac:b6ba0c55da304e2b540231cbbed9a977
gd82-07-27d1t09.flac:f6db52475c2c494de42117c9dfd559c5
gd82-07-27d1t10.flac:ada38297d984d3e9a0d1da4c79a824c4
gd82-07-27d2t01.flac:c3d0dab2c91bcfd4a13f4b9f69f21e97
gd82-07-27d2t02.flac:ce5c7d1606d11519069746b97e83f8d6
gd82-07-27d2t03.flac:c0b3b27d0bf4b3b6ac17f3f4435c2e59
gd82-07-27d2t04.flac:3ee539172f448dc6e38b2fa6e61ad2cf
gd82-07-27d2t05.flac:23a241bc8216a1aaf561f650d9917bc0
gd82-07-27d2t06.flac:216c8de40725ed23bea8a3af8f128a30
gd82-07-27d2t07.flac:a8d428ccf9bd83d8977b1c35e5b3a97b
gd82-07-27d2t08.flac:5bc5001725408df392056bff32a3f946
gd82-07-27d2t09.flac:30206ec750b4efaaa6b358e471434d3e
gd82-07-27d2t10.flac:513bd6b06bb9a06bcdda7e19b967f336
gd82-07-27d2t11.flac:bcce7c43927f67769f82061e7fae56ae
TypeGrateful Dead
Last seederLast activity 6:26 ago
Size829.81 MB (870115730 Bytes)
Added2012-12-25 08:02:43
Views2
Hits290
Snatched133 times
Upped bySpiralLightofVenus
Num files
[See full list]
24 files
Peers
[See full list]
2 seeders, 0 leechers = 2 peers total

Add a comment

SpiralLightofVenus 2012-12-25 08:03:49
Peace on Earth everyone, everywhere.

Add a comment


http://etree.org : http://db.etree.org : http://forums.etree.org : http://wiki.etree.org : Legal : RSS Feed

Contents designed & maintained by the etree.org volunteers
1998-2014, etree.org, except where noted. All Rights Reserved.
Read our terms of service and privacy guidelines