bt.etree.org
etree.org Community Bittorrent Tracker
ArtistGrateful Dead
ShowGrateful Dead - 1979-08-13 McNichols Sports Arena - Denver, CO *Matrix*
Report this as
non-Trade-Friendly
Email us
Torrentgd79-08-13.mtx.seamons.123208.flac16.torrent (click to download)
Downloads asgd79-08-13.mtx.seamons.123208.flac16
Info hash4cb77d51cb1aa6a720329641b7ffdfb4d7961fe6
db linkhttp://db.etree.org/shn/123208 | Show | Source
DescriptionGrateful Dead
McNichols Sports Arena
Denver, CO
August 13, 1979

Jerry Garcia - Lead Guitar, Vocals
Mickey Hart - Drums
Bill Kreutzmann - Drums
Phil Lesh - Electric Bass, Vocals
Brent Mydland - Keyboards, Vocals
Bob Weir - Rhythm Guitar, Vocals



*Matrix*


-----------------------------------------------------------------
SBD (shnid=119999):

Recording Info:
Set 1: SBD -> Cassette Master -> Dat (48k)
Set 2: SBD -> Reel Master -> Reel -> Dat (48k)

Transfer Info:
Dat (Sony R500) -> Tascam SS-R05 -> Samplitude Professional v11.2 -> FLAC
(3 Discs Audio / 1 DVD FLAC)

All Transfers and Mastering By Charlie Miller
charliemiller87@earthlink.net
April 29, 2012

-----------------------------------------------------------------
AUD (shnid=33583):

"Phil's Big Night!"

Master Audience Cassette; Nakamichi CM700 mics > Sony TC-158 cassette deck >
Revox Reel to Reel (DBX encoded) > DBX decoded > DAT > CDR > Flac;
Unknown Taper at this time

Encoded to flac on April 1, 2006 by Robert Goetz (winterland121072@yahoo.com).
Thanks to Scott Clugston for the audio cds. This was a special night for
the Band.

-----------------------------------------------------------------
Thank you to Charlie Miller for the SBD transfer,
and to Robert Goetz for the AUD transfer.

Matrix by Hunter Seamons using Final Cut Pro (FLAC > AIFF > Final Cut > AIFF CD tracking via Audacity > FLAC16 via xACT w/meta-tagging)
December 25, 2012


Set I
-----
d1t01 - Tuning
d1t02 - Shakedown Street
d1t03 - Me And My Uncle ->
d1t04 - Big River
d1t05 - Candyman
d1t06 - El Paso
d1t07 - Friend Of The Devil
d1t08 - Minglewood Blues
d1t09 - Althea
d1t10 - Lost Sailor ->
d1t11 - Deal

Set II
_____
d2t01 - Tuning
d2t02 - I Need A Miracle ->
d2t03 - Bertha ->
d2t04 - Good Lovin'
d2t05 - He's Gone ->
d2t06 - The Other One ->
d2t07 - Drums ->
d2t08 - Wharf Rat ->
d2t09 - Truckin'

Encore
______
d3t01 - Sugar Magnolia



-----------------------------------------------------------------------
Review for the 8/13/79 audience recording at archive.org:


Reviewer: JJSNWMF
Subject: The move from Wet Rocks

Played on 8/13/79, this was to have been the 2nd of 3 nights at Red Rocks. But the rain began to fall during the 2nd set of the first night and, unfortunately, continued for the next two nights. But, the change in the weather didn't dampen the spirits of all who had set this on their calendar months before and made the trek to see the band on the 'Rocks' in the middle of the summer of '79. All were grateful for the show still going on, as Bobby's comments indicated, and thankful to the crew that tore down the set at RR and re-assembled it all in McNichols amidst the rain and a very short timeline. 'And the band kept playin' on.' As mentioned, great and rare, (for that time period), Shakedown open. Althea and Lost Sailor being slowly introduced as new songs in back-to-back nights, (we know the songwriting faction of the band were not the most prolific songwriting teams in the 80's. But what they did put together held up fine through the years after.) The Other One jams were becoming increasingly refreshing as Brent introduced new sounds to the psychedelic passion of Other One-chaos. Finishing the show with Truckin'-Nobody's Fault but My Own-Truckin' close with Sugar Mag for dessert was a sweet touch. You could tell the band was not denying the faithful crowd an all-out show despite the wet conditions. And they were even willing to move back to Red Rocks the next night, if the weather had improved - which it didn't. But a great show which made up for the disappointment and difficulties of not having all 3 nights in Red Rocks. Thanks to the band, the crew and the good recording of a memorable night in the Rockies. 4-star rating plus a big smile for all the positive energies and those who didn't whine. - JesterJSNWMF



length expanded size cdr WAVE problems fmt ratio filename
1:07.58 11955260 B --- -- ---xx flac 0.5524 gd79-08-13d1t01.flac
12:17.59 130145612 B --- -- ---xx flac 0.6291 gd79-08-13d1t02.flac
3:07.47 33097388 B --- -- ---xx flac 0.6449 gd79-08-13d1t03.flac
7:42.04 81506252 B --- -- ---xx flac 0.6229 gd79-08-13d1t04.flac
8:16.01 87496796 B --- -- ---xx flac 0.5986 gd79-08-13d1t05.flac
3:54.62 41423468 B --- -- ---xx flac 0.6186 gd79-08-13d1t06.flac
9:24.71 99656636 B --- -- ---xx flac 0.6140 gd79-08-13d1t07.flac
7:09.52 75797948 B --- -- ---xx flac 0.6189 gd79-08-13d1t08.flac
9:24.32 99564908 B --- -- ---xx flac 0.5945 gd79-08-13d1t09.flac
6:11.58 65580860 B --- -- ---xx flac 0.6038 gd79-08-13d1t10.flac
5:06.04 53987852 B --- -- ---xx flac 0.6344 gd79-08-13d1t11.flac
1:16.48 13519340 B --- -- ---xx flac 0.5452 gd79-08-13d2t01.flac
5:28.48 57972140 B --- -- ---xx flac 0.6580 gd79-08-13d2t02.flac
6:19.61 66999116 B --- -- ---xx flac 0.6547 gd79-08-13d2t03.flac
6:51.43 72601580 B --- -- ---xx flac 0.6484 gd79-08-13d2t04.flac
12:22.11 130914716 B --- -- ---xx flac 0.6352 gd79-08-13d2t05.flac
12:08.11 128445116 B --- -- ---xx flac 0.6628 gd79-08-13d2t06.flac
13:02.42 138043628 B --- -- ---xx flac 0.5856 gd79-08-13d2t07.flac
10:36.02 112195148 B --- -- ---xx flac 0.6244 gd79-08-13d2t08.flac
11:31.59 122031212 B --- -- ---xx flac 0.6571 gd79-08-13d2t09.flac
9:28.08 100214060 B --- -- ---xx flac 0.6531 gd79-08-13d3t01.flac
162:48.31 1723149036 B 0.6273 (21 files)
Checksumsgd79-08-13d1t01.flac:86f1c34d3be853226d93085f625e312d<br />
gd79-08-13d1t02.flac:614ce95a32f456a7e8ac7e520d5e02fa<br />
gd79-08-13d1t03.flac:c068bba6d43ba44be78ad463490667d7<br />
gd79-08-13d1t04.flac:4073cc248d6e393b9514935ccbe89ee9<br />
gd79-08-13d1t05.flac:1228d599ddeab96594f4c8149807b680<br />
gd79-08-13d1t06.flac:6c258602f5d8e3870853c0f0413e4fdd<br />
gd79-08-13d1t07.flac:ef2596b8cdec874f6ce9968e6f43e6a8<br />
gd79-08-13d1t08.flac:8f6bbebc6fcf4620f9271a29b91242d7<br />
gd79-08-13d1t09.flac:2299f044eea5988dc96be20ba4aa3375<br />
gd79-08-13d1t10.flac:c3051e2f48a1890c4f6220dfdac52ce1<br />
gd79-08-13d1t11.flac:6cf07c80975eebb8909e2beff84061df<br />
gd79-08-13d2t01.flac:af23a0c7bf4e731be1cc1660fb6e0c0b<br />
gd79-08-13d2t02.flac:a58b700458e298f371cb0111acca176a<br />
gd79-08-13d2t03.flac:31e4d7c077e45cf25d7f6427cc022126<br />
gd79-08-13d2t04.flac:a7e38a06cd775b83f28422a9204df0cc<br />
gd79-08-13d2t05.flac:618a8f706b2e536853cd2c8fa5ca77b6<br />
gd79-08-13d2t06.flac:e09a99b89f28514ccbc1408d1c7d105c<br />
gd79-08-13d2t07.flac:120c60bc06acd38c0c66a9933d786674<br />
gd79-08-13d2t08.flac:1053e6369e715a63dab434163d7e5bf9<br />
gd79-08-13d2t09.flac:370c035d039c58229ffacbedf3ebcf7d<br />
gd79-08-13d3t01.flac:7715587be3b1a4f88a29193d7df16a82<br />
TypeGrateful Dead
Last seederLast activity 5:15 ago
Size1.007 GB (1081014759 Bytes)
Added2012-12-25 12:19:24
Views0
Hits1400
Snatched934 times
Upped byhseamons
Num files
[See full list]
24 files
Peers
[See full list]
6 seeders, 0 leechers = 6 peers total

Add a comment

<< Prev      Next >>
1 - 20 | 21 - 21

kwong 2013-06-01 19:36:22
Thanks

1 - 20 | 21 - 21
<< Prev      Next >>

Add a comment


http://etree.org : http://db.etree.org : http://forums.etree.org : http://wiki.etree.org : Legal : RSS Feed

Contents designed & maintained by the etree.org volunteers
1998-2014, etree.org, except where noted. All Rights Reserved.
Read our terms of service and privacy guidelines