bt.etree.org
etree.org Community Bittorrent Tracker
ArtistOther
ShowJupiter Coyote Peachtree Tavern Atlanta, Georgia 12/21/2012 (Schoeps CCM4V'S FOB)
Report this as
non-Trade-Friendly
Email us
Torrentjupiter2012-12-21.flac16.torrent (click to download)
Downloads asjupiter2012-12-21.flac16
Info hashe16e368b6e54ef2952809aaf47e23bf0f44f9c02
DescriptionJupiter Coyote
Peachtree Tavern
Atlanta, Georgia
12/21/2012

Source: Schoeps CCM4V'S(din)>Lunatec V2>Benchmark AD2K>
Sound Devices 722 (24/48)
FOB/DFC/KFC/ZFC/AARP 3' From Stage, 7' High
DSP: Sound Devices 722>Sound Forge 9.0>CD Wave>flac(16)
Recorded By: Z-Man
Seeded By: Z-Man

Disc I

01 Greeting
02 ?
03 Everytime
04 Changes
05 Lucky Day >
06 Dreams >
07 Ballad Of Lucy Edenfield
08 *Tumbleweed

Disc II

01 Somehow >
02 Parkway Blue Blinder >
03 Blue Agave
04 Rumplestiltskin
05 Can I Get A Witness
06 Rose Hill >
07 Drum Solo >
08 Rose Hill
09 Ship In The Bottle
10 #Real Thing >
11 #Crazy Women >
12 #Marie Laboe >
13 #Crazy Women

* With Gene Bass On Drums
# With Mickey On Acoustic Guitar

Show Notes: There is some intermittent crackling in the PA Here And There.

Flac Fingerprint

jupiter2012-12-21d01t01.flac:dc2fc3ce67605bbd0c6b53d23d192db3
jupiter2012-12-21d01t02.flac:79a605754fb5218766ac8dfeeee36c76
jupiter2012-12-21d01t03.flac:7d07fbe9f6fab35ddf4f1b6b7d77d0d7
jupiter2012-12-21d01t04.flac:3e00a953dba37b2ec9e0451b1f1bace7
jupiter2012-12-21d01t05.flac:ac065cbc92d8cc33ffd88aa06ebf6f95
jupiter2012-12-21d01t06.flac:1987843b85add5e90f0f7acab93d8e0d
jupiter2012-12-21d01t07.flac:42fd93109c202d8f365be3d3f969206f
jupiter2012-12-21d01t08.flac:5102c852649479d3a22b482e8c3d89da
jupiter2012-12-21d02t01.flac:02baf4d5e5e5a0d7b87e7eb1a2c40df9
jupiter2012-12-21d02t02.flac:be9025135035414c2a60be520f37424e
jupiter2012-12-21d02t03.flac:ccb8939a129484867ec4f5fba45265ed
jupiter2012-12-21d02t04.flac:7a82bcc8e1a86015f0f8cec6d8b3abe6
jupiter2012-12-21d02t05.flac:779bbeb85b9a87d215896a2b54025b86
jupiter2012-12-21d02t06.flac:dc70d806cbc17bb3ae2d41be0f55a502
jupiter2012-12-21d02t07.flac:55a41285148d346c54bbab47c8eba0ee
jupiter2012-12-21d02t08.flac:c47b74e143d75f68c7505073f1dd812a
jupiter2012-12-21d02t09.flac:b30209bc3a4edee2a23a38c3a9c58260
jupiter2012-12-21d02t10.flac:79c0ea36ac7e20893d385f8bd7a89a21
jupiter2012-12-21d02t11.flac:e7ff02a07ef6a0dc1b112aee3782cc97
jupiter2012-12-21d02t12.flac:5f5fbce256e377e2b84ba93b55bdc9a2
jupiter2012-12-21d02t13.flac:2c0b7a5d08dab963e13c786cb1760e0a

Shntool

length expanded size cdr WAVE problems fmt ratio filename
0:35.09 6195212 B --- -- ---xx flac 0.3547 jupiter2012-12-21d01t01.flac
10:55.26 115603196 B --- -- ---xx flac 0.5122 jupiter2012-12-21d01t02.flac
5:24.40 57247724 B --- -- ---xx flac 0.5096 jupiter2012-12-21d01t03.flac
7:15.01 76736396 B --- -- ---xx flac 0.4935 jupiter2012-12-21d01t04.flac
10:07.37 107161868 B --- -- ---xx flac 0.5407 jupiter2012-12-21d01t05.flac
2:55.45 30975884 B --- -- ---xx flac 0.5180 jupiter2012-12-21d01t06.flac
5:04.07 53642108 B --- -- ---xx flac 0.4751 jupiter2012-12-21d01t07.flac
8:47.44 93066332 B --- -- ---xx flac 0.5250 jupiter2012-12-21d01t08.flac
4:57.01 52393196 B --- -- ---xx flac 0.5498 jupiter2012-12-21d02t01.flac
4:33.00 48157244 B --- -- ---xx flac 0.5472 jupiter2012-12-21d02t02.flac
5:49.22 61615388 B --- -- ---xx flac 0.5104 jupiter2012-12-21d02t03.flac
5:37.67 59604428 B --- -- ---xx flac 0.4984 jupiter2012-12-21d02t04.flac
5:18.09 56116412 B --- -- ---xx flac 0.5303 jupiter2012-12-21d02t05.flac
5:25.59 57468812 B --- -- ---xx flac 0.5260 jupiter2012-12-21d02t06.flac
2:29.34 26363612 B --- -- ---xx flac 0.4865 jupiter2012-12-21d02t07.flac
8:02.23 85078940 B --- -- ---xx flac 0.4933 jupiter2012-12-21d02t08.flac
9:03.71 95952236 B --- -- ---xx flac 0.5186 jupiter2012-12-21d02t09.flac
3:55.17 41494028 B --- -- ---xx flac 0.5049 jupiter2012-12-21d02t10.flac
4:30.17 47668028 B --- -- ---xx flac 0.5386 jupiter2012-12-21d02t11.flac
1:46.62 18844268 B --- -- ---xx flac 0.5522 jupiter2012-12-21d02t12.flac
2:07.21 22452236 B --- -- ---xx flac 0.4967 jupiter2012-12-21d02t13.flac
114:41.12 1213837548 B 0.5156 (21 files)




Checksumsjupiter2012-12-21d01t01.flac:dc2fc3ce67605bbd0c6b53d23d192db3<br />
jupiter2012-12-21d01t02.flac:79a605754fb5218766ac8dfeeee36c76<br />
jupiter2012-12-21d01t03.flac:7d07fbe9f6fab35ddf4f1b6b7d77d0d7<br />
jupiter2012-12-21d01t04.flac:3e00a953dba37b2ec9e0451b1f1bace7<br />
jupiter2012-12-21d01t05.flac:ac065cbc92d8cc33ffd88aa06ebf6f95<br />
jupiter2012-12-21d01t06.flac:1987843b85add5e90f0f7acab93d8e0d<br />
jupiter2012-12-21d01t07.flac:42fd93109c202d8f365be3d3f969206f<br />
jupiter2012-12-21d01t08.flac:5102c852649479d3a22b482e8c3d89da<br />
jupiter2012-12-21d02t01.flac:02baf4d5e5e5a0d7b87e7eb1a2c40df9<br />
jupiter2012-12-21d02t02.flac:be9025135035414c2a60be520f37424e<br />
jupiter2012-12-21d02t03.flac:ccb8939a129484867ec4f5fba45265ed<br />
jupiter2012-12-21d02t04.flac:7a82bcc8e1a86015f0f8cec6d8b3abe6<br />
jupiter2012-12-21d02t05.flac:779bbeb85b9a87d215896a2b54025b86<br />
jupiter2012-12-21d02t06.flac:dc70d806cbc17bb3ae2d41be0f55a502<br />
jupiter2012-12-21d02t07.flac:55a41285148d346c54bbab47c8eba0ee<br />
jupiter2012-12-21d02t08.flac:c47b74e143d75f68c7505073f1dd812a<br />
jupiter2012-12-21d02t09.flac:b30209bc3a4edee2a23a38c3a9c58260<br />
jupiter2012-12-21d02t10.flac:79c0ea36ac7e20893d385f8bd7a89a21<br />
jupiter2012-12-21d02t11.flac:e7ff02a07ef6a0dc1b112aee3782cc97<br />
jupiter2012-12-21d02t12.flac:5f5fbce256e377e2b84ba93b55bdc9a2<br />
jupiter2012-12-21d02t13.flac:2c0b7a5d08dab963e13c786cb1760e0a
TypeOther
Last seederLast activity 30:20 ago
Size596.84 MB (625830649 Bytes)
Added2012-12-25 13:00:08
Views0
Hits242
Snatched83 times
Upped byzmanatl
Num files
[See full list]
22 files
Peers
[See full list]
1 seeder, 0 leechers = 1 peer total

Add a comment

thatbeat 2012-12-25 14:31:31
Love these guys from back in the day!

BREVARD ROCKS!
philnepp 2012-12-25 14:57:35
so glad they're playing again.
and no one better to capture it than you, zman.
thanks for all your work!

phil, a fellow foody
Hutchy 2012-12-25 17:27:07
Thank you - what a treat
peteyman54 2012-12-25 18:03:39
could not think of a better christmas present than a new show by this great band. thank you. Z-man, I live vicariously through your music! Merry Christmas.

Add a comment


http://etree.org : http://db.etree.org : http://forums.etree.org : http://wiki.etree.org : Legal : RSS Feed

Contents designed & maintained by the etree.org volunteers
1998-2014, etree.org, except where noted. All Rights Reserved.
Read our terms of service and privacy guidelines