bt.etree.org
etree.org Community Bittorrent Tracker
ArtistOther
ShowMoontower With Benji Shanks And Guarav Malhotra Eddie's Attic Decatur, Georgia 12/23/2012 (Schoeps CCM4V'S FOB)
Report this as
non-Trade-Friendly
Email us
Torrentmoontower2012-12-23.flac16.torrent (click to download)
Downloads asmoontower2012-12-23.flac16
Info hashd06948393019f30f60a4495e993c6fee93f0b8f5
DescriptionMoontower With Benji Shanks And Guarav Malhotra
Eddie's Attic
Decatur, Georgia
12/23/2012

Source: Schoeps CCM4V'S(din)>Lunatec V2>Benchmark AD2K>
Sound Devices 722 (24/48)
FOB/DFC/KFC/ZFC/AARP 8' From Stage, 8' High
DSP: Sound Devices 722>Sound Forge 9.0>CD Wave>flac(16)
Recorded By: Z-Man
Seeded By: Z-Man

Disc I 1st Set

01 Introduction By Alan
02 Next In Line
03 Run On
04 Way Back Home
05 We Can Work It Out
06 Magic Carpet Ride
07 Loving Cup
08 Saw Her Standing There
09 *So Clear
10 *Better Than Nothing >
11 *Little Drummer Boy >
12 *Better Than Nothing
13 *Santa Claus Is Coming To Town
14 *Sugaree
15 *The Weight
16 *#Wagon Wheel

Disc II 2nd Set

01 Chad Banter
02 @^City By The Bay
03 Jessica
04 ?
05 I Think It's True
06 Awaiting On A Wall
07 Keep On Rolling On
08 ?
09 ?
10 ?
11 Move Along
12 Into The Mystic
13 Billy Jean
14 Hey Jude

* With Caled Eleman On Acoustic Guitar
# With Chelsea Murphy On Vocals
@ With Allison Arnold On Vocals
^ With Ashley Arnold On Vocals
+ With Katie Hunter On Tambourine

Flac Fingerprint

moontower2012-12-23d01t01.flac:9055927b3e8719132099da4c12c349e8
moontower2012-12-23d01t02.flac:4bd73d5cea8a244fcc7ece258603ff89
moontower2012-12-23d01t03.flac:3fddfff4a9136a5c6448bc4312a52534
moontower2012-12-23d01t04.flac:e1e5ec58fe2f7c6d12d96f4084192a6f
moontower2012-12-23d01t05.flac:ee82b2e901655f7459114b574cc31bd5
moontower2012-12-23d01t06.flac:86eca9abebb2bea68a8166f7538cf68f
moontower2012-12-23d01t07.flac:9dd18867afdd27d2f366f787683dfabb
moontower2012-12-23d01t08.flac:2d8432e7af93d868da082ec425fcdb35
moontower2012-12-23d01t09.flac:1f9bde3f9064f61ce6df0021eac7095f
moontower2012-12-23d01t10.flac:98fd5dcc5a1bf40aaa5f9ef1654d8b78
moontower2012-12-23d01t11.flac:7c209ef7821a7f650df195fc7a9cb748
moontower2012-12-23d01t12.flac:9c6bd23f8846c97fa514dcca027e39f1
moontower2012-12-23d01t13.flac:de6c182ede04643bdee3b6602ab21980
moontower2012-12-23d01t14.flac:69bd50f64aed70d7cb099e907b8197e9
moontower2012-12-23d01t15.flac:23b7d5cf756dd5550619f22a78630be1
moontower2012-12-23d01t16.flac:dd728728bdc8dc1c71df5e70e04909ff
moontower2012-12-23d02t01.flac:c55e2421b9f0f9f29f1484165f72d7c8
moontower2012-12-23d02t02.flac:19d862f2d30fbbdd8fa4890465ca7983
moontower2012-12-23d02t03.flac:fa48ec555df56371c8b510328485153a
moontower2012-12-23d02t04.flac:4d56d820081233b3c03fa21d83f8d9fd
moontower2012-12-23d02t05.flac:599ab66ee10af3255c11c2433a2dccbb
moontower2012-12-23d02t06.flac:ebfcd1b3ca96235cd4fbdb06810d79b5
moontower2012-12-23d02t07.flac:ead5ac3eba1596e8adfbcabd5f44b9c5
moontower2012-12-23d02t08.flac:17f7aba49d9dfe3f18f7169abbb6ec9a
moontower2012-12-23d02t09.flac:22a44d42aad8614c9f3b7bf34a5b1240
moontower2012-12-23d02t10.flac:93fce66563a78f3fd19dc48a8b0b71f4
moontower2012-12-23d02t11.flac:4f5b30fb7e8b44631f555674932aa38b
moontower2012-12-23d02t12.flac:ce5e591edf312589fdd8c9ebb82f0b29
moontower2012-12-23d02t13.flac:b2bac44a5774330bc0f3f81409dbf253

Shntool

length expanded size cdr WAVE problems fmt ratio filename
1:54.21 20159036 B --- -- ---xx flac 0.3009 moontower2012-12-23d01t01.flac
3:59.51 42279596 B --- -- ---xx flac 0.5015 moontower2012-12-23d01t02.flac
6:23.32 67636508 B --- -- ---xx flac 0.5201 moontower2012-12-23d01t03.flac
5:03.62 53595068 B --- -- ---xx flac 0.4904 moontower2012-12-23d01t04.flac
3:15.69 34560332 B --- -- ---xx flac 0.4962 moontower2012-12-23d01t05.flac
3:18.05 34939004 B --- -- ---xx flac 0.5964 moontower2012-12-23d01t06.flac
5:03.70 53613884 B --- -- ---xx flac 0.5426 moontower2012-12-23d01t07.flac
4:05.32 43293308 B --- -- ---xx flac 0.4770 moontower2012-12-23d01t08.flac
5:53.38 62358620 B --- -- ---xx flac 0.5260 moontower2012-12-23d01t09.flac
4:22.49 46332092 B --- -- ---xx flac 0.5276 moontower2012-12-23d01t10.flac
1:05.54 11593052 B --- -- ---xx flac 0.5537 moontower2012-12-23d01t11.flac
1:13.66 13032476 B --- -- ---xx flac 0.4515 moontower2012-12-23d01t12.flac
4:24.55 46699004 B --- -- ---xx flac 0.5405 moontower2012-12-23d01t13.flac
11:35.66 122753276 B --- -- ---xx flac 0.4893 moontower2012-12-23d01t14.flac
7:23.14 78178172 B --- -- ---xx flac 0.5267 moontower2012-12-23d01t15.flac
5:29.01 58037996 B --- -- ---xx flac 0.4908 moontower2012-12-23d01t16.flac
1:41.14 17849372 B --- -- ---xx flac 0.3263 moontower2012-12-23d02t01.flac
5:51.66 62071676 B --- -- ---xx flac 0.3797 moontower2012-12-23d02t02.flac
8:47.71 93129836 B --- -- ---xx flac 0.5371 moontower2012-12-23d02t03.flac
4:09.61 44067116 B --- -- ---xx flac 0.5382 moontower2012-12-23d02t04.flac
4:31.69 47966732 B --- -- ---xx flac 0.4257 moontower2012-12-23d02t05.flac
3:08.39 33254972 B --- -- ---xx flac 0.5276 moontower2012-12-23d02t06.flac
7:34.01 80087996 B --- -- ---xx flac 0.5702 moontower2012-12-23d02t07.flac
5:17.74 56092892 B --- -- ---xx flac 0.5687 moontower2012-12-23d02t08.flac
5:16.63 55890620 B --- -- ---xx flac 0.5058 moontower2012-12-23d02t09.flac
3:41.21 39033836 B --- -- ---xx flac 0.4737 moontower2012-12-23d02t10.flac
4:18.36 45595916 B --- -- ---xx flac 0.5222 moontower2012-12-23d02t11.flac
4:22.48 46329740 B --- -- ---xx flac 0.5485 moontower2012-12-23d02t12.flac
6:51.64 72650972 B --- -- ---xx flac 0.4937 moontower2012-12-23d02t13.flac
140:07.37 1483083100 B 0.5067 (29 files)



Checksumsmoontower2012-12-23d01t01.flac:9055927b3e8719132099da4c12c349e8<br />
moontower2012-12-23d01t02.flac:4bd73d5cea8a244fcc7ece258603ff89<br />
moontower2012-12-23d01t03.flac:3fddfff4a9136a5c6448bc4312a52534<br />
moontower2012-12-23d01t04.flac:e1e5ec58fe2f7c6d12d96f4084192a6f<br />
moontower2012-12-23d01t05.flac:ee82b2e901655f7459114b574cc31bd5<br />
moontower2012-12-23d01t06.flac:86eca9abebb2bea68a8166f7538cf68f<br />
moontower2012-12-23d01t07.flac:9dd18867afdd27d2f366f787683dfabb<br />
moontower2012-12-23d01t08.flac:2d8432e7af93d868da082ec425fcdb35<br />
moontower2012-12-23d01t09.flac:1f9bde3f9064f61ce6df0021eac7095f<br />
moontower2012-12-23d01t10.flac:98fd5dcc5a1bf40aaa5f9ef1654d8b78<br />
moontower2012-12-23d01t11.flac:7c209ef7821a7f650df195fc7a9cb748<br />
moontower2012-12-23d01t12.flac:9c6bd23f8846c97fa514dcca027e39f1<br />
moontower2012-12-23d01t13.flac:de6c182ede04643bdee3b6602ab21980<br />
moontower2012-12-23d01t14.flac:69bd50f64aed70d7cb099e907b8197e9<br />
moontower2012-12-23d01t15.flac:23b7d5cf756dd5550619f22a78630be1<br />
moontower2012-12-23d01t16.flac:dd728728bdc8dc1c71df5e70e04909ff<br />
moontower2012-12-23d02t01.flac:c55e2421b9f0f9f29f1484165f72d7c8<br />
moontower2012-12-23d02t02.flac:19d862f2d30fbbdd8fa4890465ca7983<br />
moontower2012-12-23d02t03.flac:fa48ec555df56371c8b510328485153a<br />
moontower2012-12-23d02t04.flac:4d56d820081233b3c03fa21d83f8d9fd<br />
moontower2012-12-23d02t05.flac:599ab66ee10af3255c11c2433a2dccbb<br />
moontower2012-12-23d02t06.flac:ebfcd1b3ca96235cd4fbdb06810d79b5<br />
moontower2012-12-23d02t07.flac:ead5ac3eba1596e8adfbcabd5f44b9c5<br />
moontower2012-12-23d02t08.flac:17f7aba49d9dfe3f18f7169abbb6ec9a<br />
moontower2012-12-23d02t09.flac:22a44d42aad8614c9f3b7bf34a5b1240<br />
moontower2012-12-23d02t10.flac:93fce66563a78f3fd19dc48a8b0b71f4<br />
moontower2012-12-23d02t11.flac:4f5b30fb7e8b44631f555674932aa38b<br />
moontower2012-12-23d02t12.flac:ce5e591edf312589fdd8c9ebb82f0b29<br />
moontower2012-12-23d02t13.flac:b2bac44a5774330bc0f3f81409dbf253
TypeOther
Last seederLast activity 6:40:11 ago
Size716.67 MB (751488130 Bytes)
Added2012-12-25 17:38:49
Views0
Hits151
Snatched18 times
Upped byzmanatl
Num files30 files
File List
[Hide list]
filenamesizemd5
moontower2012-12-23d01t14.flac57.28 MBN/A
moontower2012-12-23d02t03.flac47.70 MBN/A
moontower2012-12-23d02t07.flac43.55 MBN/A
moontower2012-12-23d01t15.flac39.27 MBN/A
moontower2012-12-23d02t13.flac34.20 MBN/A
moontower2012-12-23d01t03.flac33.55 MBN/A
moontower2012-12-23d01t09.flac31.28 MBN/A
moontower2012-12-23d02t08.flac30.42 MBN/A
moontower2012-12-23d01t07.flac27.74 MBN/A
moontower2012-12-23d01t16.flac27.17 MBN/A
moontower2012-12-23d02t09.flac26.96 MBN/A
moontower2012-12-23d01t04.flac25.06 MBN/A
moontower2012-12-23d02t12.flac24.23 MBN/A
moontower2012-12-23d01t13.flac24.07 MBN/A
moontower2012-12-23d01t10.flac23.31 MBN/A
moontower2012-12-23d02t11.flac22.71 MBN/A
moontower2012-12-23d02t04.flac22.62 MBN/A
moontower2012-12-23d02t02.flac22.47 MBN/A
moontower2012-12-23d01t02.flac20.22 MBN/A
moontower2012-12-23d01t06.flac19.87 MBN/A
moontower2012-12-23d01t08.flac19.69 MBN/A
moontower2012-12-23d02t05.flac19.48 MBN/A
moontower2012-12-23d02t10.flac17.63 MBN/A
moontower2012-12-23d02t06.flac16.73 MBN/A
moontower2012-12-23d01t05.flac16.35 MBN/A
moontower2012-12-23d01t11.flac6.12 MBN/A
moontower2012-12-23d01t01.flac5.78 MBN/A
moontower2012-12-23d01t12.flac5.61 MBN/A
moontower2012-12-23d02t01.flac5.55 MBN/A
moontower2012-12-23.textfile.txt5.8 kBN/A
Peers
[See full list]
0 seeders, 1 leecher = 1 peer total

No comments yet

Add a comment


http://etree.org : http://db.etree.org : http://forums.etree.org : http://wiki.etree.org : Legal : RSS Feed

Contents designed & maintained by the etree.org volunteers
1998-2014, etree.org, except where noted. All Rights Reserved.
Read our terms of service and privacy guidelines