bt.etree.org
etree.org Community Bittorrent Tracker
ArtistGrateful Dead
Showgd82-07-28.32707.sbd.browning-feinburg.t-flac16
Report this as
non-Trade-Friendly
Email us
Torrentgd82-07-28.32707.sbd.browning-feinberg.sbeok.t-flac16.torrent (click to download)
Downloads asgd82-07-28.32707.sbd.browning-feinberg.sbeok.t-flac16
Info hash404e543080ffb345e7d581e261cb9ba1168dc3f0
db linkhttp://db.etree.org/shn/32707 | Show | Source
DescriptionThis is a tagged version of shnid: 32707

GRATEFUL DEAD
07-28-1982
Red Rocks
Morrison CO

Source: Soundboard of unknown lineage > ? > Cassette.
Transfer: Cassettes > Sony TC-D5M > Sounblaster > Soundforge >
CD-Wave > TLH v.1.0.0.72 (for SBE-Fix, Checksums, and FLAC
Compression) > FLAC > bt.etree March 2006.
__________________________________________________________________________

--Set 1--
101-d1t01 - Shakedown Street
102-d1t02 - Beat It on Down the Line ->
103-d1t03 - Greatest Story Ever Told
104-d1t04 - They Love Each Other
105-d1t05 - Mama Tried ->
106-d1t06 - Mexicali Blues
107-d1t07 - Big Railroad Blues
108-d1t08 - Lazy Lightnin' ->
109-d1t09 - Supplication
110-d1t10 - Deal

--Set 2--
201-d1t01 - Man Smart (Women Are Smarter)
202-d2t02 - Althea
203-d2t03 - Let It Grow ->
204-d2t04 - He's Gone >
205-d2t05 - Truckin' ->
206-d2t06 - Jam without Jerry ->
207-d2t07 - Drums//
208-d3t01 - Drums continued ->
209-d3t02 - Space -> Spanish Jam ->
210-d3t03 - Jam -> Not Fade Away ->
211-d3t04 - Black Peter ->
212-d3t05 - Sugar Magnolia

--Encore--
213-d3t06 - It's All Over Now, Baby Blue

--disc 1 total time--61:20--
--disc 2 total time--54:34--
--disc 3 total time--48:33--
__________________________________________________________________________

Notes:
Soundforge was used to make fades, and to patch-in the first
five seconds of Shakedown from the AUD source taken from LMA.
The missing segment of drums could not be patched-in since the
same segment was missing from the AUD source.

There was a rain storm during this show, which seems to have
caused some sound problems in the mix. Both Jerry and Bob's
guitars drop in and out of the mix during the first set, and
are almost gone at times. These moments occur in spots between
TLEO and Women Are Smarter. There's also light static in the
right channel at a few spots, and a few brief moments where the
vocals go out, and the bass pops. All of these are likely due
to the rain storm, and not a problem with the transfer or your
download. Still, it's a great source, so don't let that scare
you away. There's minimal cuts and hiss, so I'm guessing this
is a low-gen source, or possibly a reel source. Big thanks to
Joey Browning and Jake Feinberg for the cassettes. ENJOY!
__________________________________________________________________________

Tagging notes:
Show information is embedded within the header of each flac file.
It will display on any player capable of directly playing flac
files. If converted to wav during processing, all tags will be
stripped, however audio data will remain unaffected. If you must
transcode to a lossy format, do so directly Flac > Lossy.
Use ffp to validate audio integrity.
Md5 values will change if tagging is altered.
B. Proctor 10-23-10
__________________________________________________________________________

FLAC Fingerprints:

gd1982-07-28d1t01.flac:9b8549d03a6fd5b06e428dcfbc9907a0
gd1982-07-28d1t02.flac:bfe8fd05facc16526470550c36af1959
gd1982-07-28d1t03.flac:eb55a490c991aa4399fd267b98b53c6d
gd1982-07-28d1t04.flac:a53f8216087643116e5b9f7f4855a179
gd1982-07-28d1t05.flac:cd2971bed09565022d2da43f7135fb79
gd1982-07-28d1t06.flac:7dfb516fad48893563941d2340a2525f
gd1982-07-28d1t07.flac:81d77298f995cb107b7de3ee28c5bb5f
gd1982-07-28d1t08.flac:2b188bd137129024e6c5ed70e42f2ea5
gd1982-07-28d1t09.flac:e81cc5fd8a60297580265765f2931838
gd1982-07-28d1t10.flac:f63c526660d038a4fe17f28ae15c9931
gd1982-07-28d2t01.flac:71d7b0268157cc36381e95a812938eac
gd1982-07-28d2t02.flac:6b8ebd9f3941b0111909d67d7998ffb0
gd1982-07-28d2t03.flac:1bd062582c06488ef135126a6d374e5d
gd1982-07-28d2t04.flac:0557d12240c8e8dc05f81fff155fa16a
gd1982-07-28d2t05.flac:a5372ec9cab301fa83c8e722e67d0c7d
gd1982-07-28d2t06.flac:4c52964e8c8833fa6803654e6662217a
gd1982-07-28d2t07.flac:d45e0c364681663d53b15d365a3fe5e9
gd1982-07-28d3t01.flac:ee36f6b2150862c2cba0671057651e2e
gd1982-07-28d3t02.flac:c479527a7fa69f511bbdfddf34d8d888
gd1982-07-28d3t03.flac:c05e6c50ca3f48be38833993675eb13a
gd1982-07-28d3t04.flac:30d997db9a605930760594248c3b14ca
gd1982-07-28d3t05.flac:d499e1c78d16c6cb88360adacc9ce8f1
gd1982-07-28d3t06.flac:699cf6d590f81a26399a7043f7cacc03


Shntool Output:

length expanded size cdr WAVE problems filename
14:09.11 149789516 --- -- ---xx gd1982-07-28d1t01.flac
3:05.60 32775164 --- -- ---xx gd1982-07-28d1t02.flac
4:13.56 44760956 --- -- ---xx gd1982-07-28d1t03.flac
8:43.27 92320748 --- -- ---xx gd1982-07-28d1t04.flac
2:28.34 26187212 --- -- ---xx gd1982-07-28d1t05.flac
4:45.18 50316380 --- -- ---xx gd1982-07-28d1t06.flac
6:58.42 73834028 --- -- ---xx gd1982-07-28d1t07.flac
3:14.36 34306316 --- -- ---xx gd1982-07-28d1t08.flac
6:14.24 66030092 --- -- ---xx gd1982-07-28d1t09.flac
7:27.19 78895532 --- -- ---xx gd1982-07-28d1t10.flac
7:57.33 84220460 --- -- ---xx gd1982-07-28d2t01.flac
7:36.42 80537228 --- -- ---xx gd1982-07-28d2t02.flac
10:38.34 112623212 --- -- ---xx gd1982-07-28d2t03.flac
14:35.03 154357100 --- -- ---xx gd1982-07-28d2t04.flac
7:17.26 77147996 --- -- ---xx gd1982-07-28d2t05.flac
5:15.50 55683644 --- -- ---xx gd1982-07-28d2t06.flac
1:14.32 13128908 --- -- ---xx gd1982-07-28d2t07.flac
7:36.47 80548988 --- -- ---xx gd1982-07-28d3t01.flac
6:28.24 68499692 --- -- ---xx gd1982-07-28d3t02.flac
8:36.59 91161212 --- -- ---xx gd1982-07-28d3t03.flac
9:29.13 100402220 --- -- ---xx gd1982-07-28d3t04.flac
9:08.73 96838940 --- -- ---xx gd1982-07-28d3t05.flac
7:13.37 76468268 --- -- ---xx gd1982-07-28d3t06.flac
164:28.50 1740833812 B (totals for 23 files, 0.5707 overall compression ratio)

There were no sector boundary errors.
Checksumsgd1982-07-28d1t01.flac:9b8549d03a6fd5b06e428dcfbc9907a0
gd1982-07-28d1t02.flac:bfe8fd05facc16526470550c36af1959
gd1982-07-28d1t03.flac:eb55a490c991aa4399fd267b98b53c6d
gd1982-07-28d1t04.flac:a53f8216087643116e5b9f7f4855a179
gd1982-07-28d1t05.flac:cd2971bed09565022d2da43f7135fb79
gd1982-07-28d1t06.flac:7dfb516fad48893563941d2340a2525f
gd1982-07-28d1t07.flac:81d77298f995cb107b7de3ee28c5bb5f
gd1982-07-28d1t08.flac:2b188bd137129024e6c5ed70e42f2ea5
gd1982-07-28d1t09.flac:e81cc5fd8a60297580265765f2931838
gd1982-07-28d1t10.flac:f63c526660d038a4fe17f28ae15c9931
gd1982-07-28d2t01.flac:71d7b0268157cc36381e95a812938eac
gd1982-07-28d2t02.flac:6b8ebd9f3941b0111909d67d7998ffb0
gd1982-07-28d2t03.flac:1bd062582c06488ef135126a6d374e5d
gd1982-07-28d2t04.flac:0557d12240c8e8dc05f81fff155fa16a
gd1982-07-28d2t05.flac:a5372ec9cab301fa83c8e722e67d0c7d
gd1982-07-28d2t06.flac:4c52964e8c8833fa6803654e6662217a
gd1982-07-28d2t07.flac:d45e0c364681663d53b15d365a3fe5e9
gd1982-07-28d3t01.flac:ee36f6b2150862c2cba0671057651e2e
gd1982-07-28d3t02.flac:c479527a7fa69f511bbdfddf34d8d888
gd1982-07-28d3t03.flac:c05e6c50ca3f48be38833993675eb13a
gd1982-07-28d3t04.flac:30d997db9a605930760594248c3b14ca
gd1982-07-28d3t05.flac:d499e1c78d16c6cb88360adacc9ce8f1
gd1982-07-28d3t06.flac:699cf6d590f81a26399a7043f7cacc03
TypeGrateful Dead
Last seederLast activity 9:18 ago
Size947.40 MB (993423588 Bytes)
Added2012-12-27 08:40:26
Views0
Hits566
Snatched386 times
Upped bygermain
Num files
[See full list]
26 files
Peers
[See full list]
2 seeders, 0 leechers = 2 peers total

No comments yet

Add a comment


http://etree.org : http://db.etree.org : http://forums.etree.org : http://wiki.etree.org : Legal : RSS Feed

Contents designed & maintained by the etree.org volunteers
1998-2014, etree.org, except where noted. All Rights Reserved.
Read our terms of service and privacy guidelines