bt.etree.org
etree.org Community Bittorrent Tracker
ArtistGrateful Dead
Showgd82-07-28.102571.fob-senn421.wise.miller.t-flac16
Report this as
non-Trade-Friendly
Email us
Torrentgd82-07-28.102571.fob.senn421.wise-miller.t-flac16.torrent (click to download)
Downloads asgd82-07-28.102571.fob.senn421.wise-miller.t-flac16
Info hashe8783598a5424f1de85b01084fbf78f3fe8b7a72
db linkhttp://db.etree.org/shn/102571 | Show | Source
Descriptionhis is a tagged version of shnid: 102571

Grateful Dead
July 28, 1982
Red Rocks Amphitheatre
Morrison, CO

Recording Info:
(FOB) Sennheiser 421 -> Cassette Master (Sony TC-D5M/Maxell UDXLII-C90/Dolby B)

Transfer Info:
Cassette Master (Nakamichi DR-1/Dolby B) -> Sound Devices 744T (24bit/96k) ->
Adobe Audition v1.5 -> Samplitude Professional v10.22 -> FLAC/16
(3 Discs Audio / 2 Discs FLAC)

All Transfers and Mastering By Charlie Miller
charliemiller87@earthlink.net
November 15, 2009

Notes:
-- Set 2 disc change is seamless
-- Recorded By Jim Wise
-- Thanks to Jim Wise for lending me his master cassettes
-- Thanks to Joe B. Jones for his help with the pitch correction
_______________________________________________________________________________

--Set 1--
101-d1t01 - Shakedown Street
102-d1t02 - Beat It on Down the Line ->
103-d1t03 - Greatest Story Ever Told
104-d1t04 - They Love Each Other
105-d1t05 - Mama Tried ->
106-d1t06 - Mexicali Blues
107-d1t07 - Big Railroad Blues
108-d1t08 - Lazy Lightnin' ->
109-d1t09 - Supplication
110-d1t10 - Deal

--Set 2--
201-d2t01 - Man Smart (Woman Smarter)
202-d2t02 - Althea
203-d2t03 - Let It Grow ->
204-d2t04 - He's Gone ->
205-d2t05 - Truckin' ->
206-d2t06 - Drums ->
207-d3t01 - Space ->
208-d3t02 - Spanish Jam ->
209-d3t03 - Not Fade Away ->
210-d3t04 - Black Peter ->
211-d3t05 - Sugar Magnolia

--Encore--
212-d3t06 - It's All Over Now, Baby Blue
_______________________________________________________________________________

Tagging notes:
Show information is embedded within the header of each flac file.
It will display on any player capable of directly playing flac
files. If converted to wav during processing, all tags will be
stripped, however audio data will remain unaffected. If you must
transcode to a lossy format, do so directly Flac > Lossy.
Use ffp to validate audio integrity.
Md5 values will change if tagging is altered.
B. Proctor 10-23-10
_______________________________________________________________________________


SHNTOOL OUTPUT:
length expanded size cdr WAVE problems filename
14:17.01 151177196 --- -- ----- gd82-07-28d1t01.wav
3:04.01 32459996 --- -- ----- gd82-07-28d1t02.wav
4:08.40 43841324 --- -- ----- gd82-07-28d1t03.wav
8:58.19 94947932 --- -- ----- gd82-07-28d1t04.wav
2:25.67 25735628 --- -- ----- gd82-07-28d1t05.wav
4:44.70 50262284 --- -- ----- gd82-07-28d1t06.wav
7:06.01 75148796 --- -- ----- gd82-07-28d1t07.wav
3:08.36 33247916 --- -- ----- gd82-07-28d1t08.wav
6:15.27 66213548 --- -- ----- gd82-07-28d1t09.wav
7:28.05 79039004 --- -- ----- gd82-07-28d1t10.wav
7:56.36 84051116 --- -- ----- gd82-07-28d2t01.wav
8:27.59 89573612 --- -- ----- gd82-07-28d2t02.wav
10:22.35 109803164 --- -- ----- gd82-07-28d2t03.wav
14:37.26 154763996 --- -- ----- gd82-07-28d2t04.wav
12:29.62 132269468 --- -- ----- gd82-07-28d2t05.wav
6:23.08 67580060 --- -- ----- gd82-07-28d2t06.wav
3:02.15 32140124 --- -- ----- gd82-07-28d3t01.wav
4:15.72 45151388 --- -- ----- gd82-07-28d3t02.wav
7:43.40 81767324 --- -- ----- gd82-07-28d3t03.wav
9:31.74 100898492 --- -- ----- gd82-07-28d3t04.wav
9:13.41 97645676 --- -- ----- gd82-07-28d3t05.wav
7:03.64 74767772 --- -- ----- gd82-07-28d3t06.wav
162:44.49 1722485816 B (totals for 22 files)
Checksumsgd82-07-28d1t01.flac:fea3ed02fe3a0fd442d41faeaa9c1fe8<br />
gd82-07-28d1t02.flac:82209ab56356b08effc43d33c250f980<br />
gd82-07-28d1t03.flac:336d251273a4577b4e33f4e361ff7ffc<br />
gd82-07-28d1t04.flac:24b811f2e7c1d4632e123f0ad42dbad4<br />
gd82-07-28d1t05.flac:b33d964750caba440bc102a32b3a50ef<br />
gd82-07-28d1t06.flac:b4d2772ab1fc6393d1f805ec5a70242a<br />
gd82-07-28d1t07.flac:61c10915a2ea5a95afbf59deaf6cc3ec<br />
gd82-07-28d1t08.flac:0c822da97e70cc4f094a89bea0f41d2a<br />
gd82-07-28d1t09.flac:07ce851a3c5d2c2309fcb0722b0592c8<br />
gd82-07-28d1t10.flac:832356f7bd517243af6f55edcfa21dd9<br />
gd82-07-28d2t01.flac:8ab1151096c84f3e96e5c00e924ba59e<br />
gd82-07-28d2t02.flac:6696c1b46cd348376b7a8e3589d2dac2<br />
gd82-07-28d2t03.flac:cd00f2a8bb8201e63247bd318458a364<br />
gd82-07-28d2t04.flac:e82f6f4c98a193cc96335563495e96cb<br />
gd82-07-28d2t05.flac:beaf0025fcd970a7d64965536af236e5<br />
gd82-07-28d2t06.flac:823acb93d92bbae1077fda36648df619<br />
gd82-07-28d3t01.flac:d0d88ce88b68ff0cea8f98cd70f6725d<br />
gd82-07-28d3t02.flac:495efae826051c599b51284b7106b6c5<br />
gd82-07-28d3t03.flac:f1eca8963f4833a087adb1eb529cf184<br />
gd82-07-28d3t04.flac:2fca9f94d1860909522efd6bc9820c18<br />
gd82-07-28d3t05.flac:2a49fd34535eefba04cc339749e3e525<br />
gd82-07-28d3t06.flac:7974929acc18cf2051975be871a29ad7
TypeGrateful Dead
Last seederLast activity 29:49 ago
Size1002.36 MB (1051047247 Bytes)
Added2012-12-27 08:43:18
Views0
Hits328
Snatched162 times
Upped bygermain
Num files26 files
File List
[Hide list]
filenamesizemd5
gd1982-07-25.txt2.9 kBN/A
gd1982-07-28.102571.ffp1.2 kBN/A
gd1982-07-28.txt3.7 kBN/A
gd82-07-28.102571.tagged.md51.3 kBN/A
gd82-07-28d1t01.flac89.08 MBN/A
gd82-07-28d1t02.flac20.39 MBN/A
gd82-07-28d1t03.flac26.46 MBN/A
gd82-07-28d1t04.flac55.44 MBN/A
gd82-07-28d1t05.flac15.57 MBN/A
gd82-07-28d1t06.flac30.79 MBN/A
gd82-07-28d1t07.flac43.40 MBN/A
gd82-07-28d1t08.flac20.00 MBN/A
gd82-07-28d1t09.flac40.02 MBN/A
gd82-07-28d1t10.flac47.92 MBN/A
gd82-07-28d2t01.flac49.19 MBN/A
gd82-07-28d2t02.flac50.09 MBN/A
gd82-07-28d2t03.flac64.79 MBN/A
gd82-07-28d2t04.flac88.24 MBN/A
gd82-07-28d2t05.flac79.97 MBN/A
gd82-07-28d2t06.flac37.16 MBN/A
gd82-07-28d3t01.flac16.98 MBN/A
gd82-07-28d3t02.flac22.45 MBN/A
gd82-07-28d3t03.flac48.06 MBN/A
gd82-07-28d3t04.flac56.14 MBN/A
gd82-07-28d3t05.flac58.08 MBN/A
gd82-07-28d3t06.flac42.11 MBN/A
Peers
[See full list]
1 seeder, 0 leechers = 1 peer total

Add a comment

tommie01 2012-12-27 14:42:45
Thank you Sir Jim, Mr. Charlie, and Saint Germain. Thanks for continuing to share these shows. I know that while this is a labor of love, it is still a lot of time and effort. The best of blessings in the new year.
beenwaytoolongatsea 2012-12-27 14:45:15
i love all this '82 that has been popping up, have massively supplemented my collection from that time in recent weeks, what a great period.

thanks so much to all the tapers, transferers and up loaders!
gratefuldave78 2012-12-27 16:23:03
damn it wise!
LAStubbe 2012-12-27 19:32:01
Thank you Bill for another great year of sharing your professionally tagged file sets and consistent effort to get through the collection! Your efforts are very much appreciated not only for this, but for the work on bornxeyed. Happy Holidays and Happy New Year!
LAStubbe 2012-12-27 19:32:29
I hope someday we can bring this kind of uniformity to the Phish collection.

Add a comment


http://etree.org : http://db.etree.org : http://forums.etree.org : http://wiki.etree.org : Legal : RSS Feed

Contents designed & maintained by the etree.org volunteers
1998-2014, etree.org, except where noted. All Rights Reserved.
Read our terms of service and privacy guidelines