bt.etree.org
etree.org Community Bittorrent Tracker
ArtistOther
ShowBhojanic Jam Bhojanic Restaurant Decatur, Georgia 12/26/2012 (Schoeps CCM4V'S FOB)
Report this as
non-Trade-Friendly
Email us
Torrentbhojanic2012-12-26.flac16.torrent (click to download)
Downloads asbhojanic2012-12-26.flac16
Info hasha67dab0fd00a4dbcba0b1d1150ca703866e02cd1
DescriptionBhojanic Jam
Bhojanic Restaurant
Decatur, Georgia
12/26/2012

Source: Schoeps CCM4V'S(din)>Lunatec V2>Benchmark AD2K>
Sound Devices 722 (24/48)
FOB/DFC/KFC/ZFC/AARP Stage Lip, 3' High
DSP: Sound Devices 722>Sound Forge 9.0>CD Wave>flac(16)
Recorded By: Z-Man
Seeded By: Z-Man

Disc I 1st Set

01 ?
02 ?
03 ?
04 ?
05 ?
06 ?

Disc II 2nd Set

01 Nick Banter
02 *You Upset Me
03 *Even A Cajun Man Gets The Blues
04 *?
05 Banter/Tuning
06 *Get Out My Life Woman
07 *
08 *Mercy

* With Eric Fontaine On Saxophone

Guarav Malhotra - Percussion And Vocals
Nick Johnson - Guitar And Vocals
Matt Stallard - Bass

Flac Fingerprint

bhojanic2012-12-26d01t01.flac:e0e2205d044c7f9455783ac2add6ab3d
bhojanic2012-12-26d01t02.flac:ff08abc8ae383de705ef5e1e1033e513
bhojanic2012-12-26d01t03.flac:995f1b26a3d4ca5d0b5fe0bf39b1da4f
bhojanic2012-12-26d01t04.flac:be14b9939af585307c47d6cdafa5729d
bhojanic2012-12-26d01t05.flac:f9c323fc5189cb345657c80bf3261d55
bhojanic2012-12-26d01t06.flac:d160f31351c411fea88b832c32b4ec1f
bhojanic2012-12-26d02t01.flac:2886e79971a859ef2eed8c60e1cf75f9
bhojanic2012-12-26d02t02.flac:62ca47a3dad5b9d86fe18f8dc540c3de
bhojanic2012-12-26d02t03.flac:b628ff9e55679ea79fa034edb1a70dab
bhojanic2012-12-26d02t04.flac:679b560a9d370a47f1358276db257632
bhojanic2012-12-26d02t05.flac:3f3ee99f103930c2837504cecebaeef7
bhojanic2012-12-26d02t06.flac:c7d2bd26e4b96ff4c6ca187d4d7d7b7e
bhojanic2012-12-26d02t07.flac:f81081885635d543f0518d9da63f317c
bhojanic2012-12-26d02t08.flac:5e1a8113e83b60fd64e3e52c6428a3ea

Shntool

length expanded size cdr WAVE problems fmt ratio filename
11:27.02 121191548 B --- -- ---xx flac 0.3765 bhojanic2012-12-26d01t01.flac
11:56.24 126358892 B --- -- ---xx flac 0.3847 bhojanic2012-12-26d01t02.flac
9:36.69 101768732 B --- -- ---xx flac 0.3914 bhojanic2012-12-26d01t03.flac
10:32.10 111508364 B --- -- ---xx flac 0.4287 bhojanic2012-12-26d01t04.flac
11:44.48 124298540 B --- -- ---xx flac 0.4183 bhojanic2012-12-26d01t05.flac
8:42.07 92097308 B --- -- ---xx flac 0.4384 bhojanic2012-12-26d01t06.flac
1:10.02 12352748 B --- -- ---xx flac 0.2271 bhojanic2012-12-26d02t01.flac
6:38.54 70334252 B --- -- ---xx flac 0.4222 bhojanic2012-12-26d02t02.flac
12:03.58 127673660 B --- -- ---xx flac 0.4523 bhojanic2012-12-26d02t03.flac
16:48.23 177865340 B --- -- ---xx flac 0.4158 bhojanic2012-12-26d02t04.flac
2:35.23 27396140 B --- -- ---xx flac 0.1847 bhojanic2012-12-26d02t05.flac
7:51.57 83218508 B --- -- ---xx flac 0.3792 bhojanic2012-12-26d02t06.flac
10:42.15 113284124 B --- -- ---xx flac 0.3807 bhojanic2012-12-26d02t07.flac
9:47.35 103629164 B --- -- ---xx flac 0.4697 bhojanic2012-12-26d02t08.flac
131:36.52 1392977320 B 0.4069 (14 files)










Checksumsbhojanic2012-12-26d01t01.flac:e0e2205d044c7f9455783ac2add6ab3d
bhojanic2012-12-26d01t02.flac:ff08abc8ae383de705ef5e1e1033e513
bhojanic2012-12-26d01t03.flac:995f1b26a3d4ca5d0b5fe0bf39b1da4f
bhojanic2012-12-26d01t04.flac:be14b9939af585307c47d6cdafa5729d
bhojanic2012-12-26d01t05.flac:f9c323fc5189cb345657c80bf3261d55
bhojanic2012-12-26d01t06.flac:d160f31351c411fea88b832c32b4ec1f
bhojanic2012-12-26d02t01.flac:2886e79971a859ef2eed8c60e1cf75f9
bhojanic2012-12-26d02t02.flac:62ca47a3dad5b9d86fe18f8dc540c3de
bhojanic2012-12-26d02t03.flac:b628ff9e55679ea79fa034edb1a70dab
bhojanic2012-12-26d02t04.flac:679b560a9d370a47f1358276db257632
bhojanic2012-12-26d02t05.flac:3f3ee99f103930c2837504cecebaeef7
bhojanic2012-12-26d02t06.flac:c7d2bd26e4b96ff4c6ca187d4d7d7b7e
bhojanic2012-12-26d02t07.flac:f81081885635d543f0518d9da63f317c
bhojanic2012-12-26d02t08.flac:5e1a8113e83b60fd64e3e52c6428a3ea
TypeOther
Last seederLast activity 92 days, 11:39:21 ago
Size540.59 MB (566846718 Bytes)
Added2012-12-27 17:20:55
Views0
Hits106
Snatched13 times
Upped byzmanatl
Num files15 files
File List
[Hide list]
filenamesizemd5
bhojanic2012-12-26d02t04.flac70.53 MBN/A
bhojanic2012-12-26d02t03.flac55.07 MBN/A
bhojanic2012-12-26d01t05.flac49.59 MBN/A
bhojanic2012-12-26d02t08.flac46.42 MBN/A
bhojanic2012-12-26d01t02.flac46.36 MBN/A
bhojanic2012-12-26d01t04.flac45.59 MBN/A
bhojanic2012-12-26d01t01.flac43.51 MBN/A
bhojanic2012-12-26d02t07.flac41.13 MBN/A
bhojanic2012-12-26d01t06.flac38.50 MBN/A
bhojanic2012-12-26d01t03.flac37.98 MBN/A
bhojanic2012-12-26d02t06.flac30.09 MBN/A
bhojanic2012-12-26d02t02.flac28.32 MBN/A
bhojanic2012-12-26d02t05.flac4.82 MBN/A
bhojanic2012-12-26d02t01.flac2.68 MBN/A
bhojanic2012-12-26.textfile.txt3.0 kBN/A
Peers
[See full list]
0 seeders, 1 leecher = 1 peer total

Add a comment

mmwarchives 2012-12-27 19:22:54
Always looking for something to jam at, aren't you?? Bless you!!

&, well, you WERE recording at a restaurant...please enlighten us with what fine vittles you chowed down upon there!!

Cheers & Happy Holidaze, Z!!

Add a comment


http://etree.org : http://db.etree.org : http://forums.etree.org : http://wiki.etree.org : Legal : RSS Feed

Contents designed & maintained by the etree.org volunteers
1998-2014, etree.org, except where noted. All Rights Reserved.
Read our terms of service and privacy guidelines