bt.etree.org
etree.org Community Bittorrent Tracker
ArtistGrateful Dead
Showgd82-07-29.102569.fob-senn421.wise.miller.t-flac16
Report this as
non-Trade-Friendly
Email us
Torrentgd82-07-29.102569.fob-senn421.wise-miller.t-flac16.torrent (click to download)
Downloads asgd82-07-29.102569.fob-senn421.wise-miller.t-flac16
Info hash9d8c89c7075b11c1022ecbb30d8ff2cd3dd47845
db linkhttp://db.etree.org/shn/102569 | Show | Source
DescriptionThis is a tagged version of shnid: 102569

Grateful Dead
July 29, 1982
Red Rocks Amphitheatre
Morrison, CO

Recording Info:
(FOB) Sennheiser 421 -> Cassette Master (Sony TC-D5M/Maxell UDXLII-C90/Dolby B)

Transfer Info:
Cassette Master (Nakamichi DR-1/Dolby B) -> Sound Devices 744T (24bit/96k) ->
Adobe Audition v1.5 -> Samplitude Professional v10.22 -> FLAC/16
(2 Discs Audio / 2 Discs FLAC)

All Transfers and Mastering By Charlie Miller
charliemiller87@earthlink.net
November 14, 2009

Notes:
-- Disc change is seamless
-- Recorded By Jim Wise
-- Thanks to Jim Wise for lending me his master cassettes
-- Thanks to Joe B. Jones for his help with the pitch correction
__________________________________________________________________________

--Set 1--
101-d1t01 - Tuning
102-d1t02 - New Minglewood Blues
103-d1t03 - Friend of the Devil
104-d1t04 - Cassidy
105-d1t05 - Loser
106-d1t06 - Feel Like a Stranger
107-d1t07 - Tennessee Jed ->
108-d1t08 - Looks Like Rain
109-d1t09 - Might as Well

--Set 2--
201-d1t10 - Cold Rain & Snow ->
202-d1t11 - Samson & Delilah
203-d2t01 - Crazy Fingers ->
204-d2t02 - I Need a Miracle ->
205-d2t03 - Crazy Fingers Jam ->
206-d2t04 - Drums ->
207-d2t05 - Space ->
208-d2t06 - The Other One ->
209-d2t07 - Goin' Down the Road Feeling Bad ->
210-d2t08 - Wharf Rat ->
211-d2t09 - Around & Around ->
212-d2t10 - Good Lovin'

--Encore--
213-d2t11 - Brokedown Palace
__________________________________________________________________________

Tagging notes:
Show information is embedded within the header of each flac file.
It will display on any player capable of directly playing flac
files. If converted to wav during processing, all tags will be
stripped, however audio data will remain unaffected. If you must
transcode to a lossy format, do so directly Flac > Lossy.
Use ffp to validate audio integrity.
Md5 values will change if tagging is altered.
B. Proctor 10-25-10
__________________________________________________________________________

SHNTOOL OUTPUT:
length expanded size cdr WAVE problems filename
2:03.15 21732524 --- -- ----- gd82-07-29d1t01.wav
7:54.63 83761820 --- -- ----- gd82-07-29d1t02.wav
8:49.38 93405020 --- -- ----- gd82-07-29d1t03.wav
6:13.29 65865452 --- -- ----- gd82-07-29d1t04.wav
7:46.04 82211852 --- -- ----- gd82-07-29d1t05.wav
7:54.70 83778284 --- -- ----- gd82-07-29d1t06.wav
8:11.68 86772380 --- -- ----- gd82-07-29d1t07.wav
7:57.39 84234572 --- -- ----- gd82-07-29d1t08.wav
4:43.74 50095292 --- -- ----- gd82-07-29d1t09.wav
5:44.27 60745148 --- -- ----- gd82-07-29d1t10.wav
8:25.13 89112620 --- -- ----- gd82-07-29d1t11.wav
8:34.64 90820172 --- -- ----- gd82-07-29d2t01.wav
6:01.46 63788636 --- -- ----- gd82-07-29d2t02.wav
4:39.04 49225052 --- -- ----- gd82-07-29d2t03.wav
7:43.08 81692060 --- -- ----- gd82-07-29d2t04.wav
2:20.50 24813644 --- -- ----- gd82-07-29d2t05.wav
10:00.58 105976460 --- -- ----- gd82-07-29d2t06.wav
7:42.05 81508604 --- -- ----- gd82-07-29d2t07.wav
9:19.25 98666444 --- -- ----- gd82-07-29d2t08.wav
3:55.31 41526956 --- -- ----- gd82-07-29d2t09.wav
8:06.54 85857452 --- -- ----- gd82-07-29d2t10.wav
5:34.24 58974092 --- -- ----- gd82-07-29d2t11.wav
149:42.59 1584564536 B (totals for 22 files)
Checksumsgd82-07-29d1t01.flac:af713b8da5d15748f6bcbbd8d9f8e89d
gd82-07-29d1t02.flac:e9474d6858ea43174cd633cb1c176890
gd82-07-29d1t03.flac:5e6981eaeef727526ff9f58d78cd0885
gd82-07-29d1t04.flac:cb7e91c02cdffb3236b335945d7bdb01
gd82-07-29d1t05.flac:de619ba110324540ee9ac3cee16d95fd
gd82-07-29d1t06.flac:adf68ded24c4c5d08fa9e6f297d22cb4
gd82-07-29d1t07.flac:94848a5e5dcf78751d3ac69aeaf1c6fe
gd82-07-29d1t08.flac:0f8f77741ab835f072d8e28ff919ad63
gd82-07-29d1t09.flac:9a762767de3e383a2c1e019220706d40
gd82-07-29d1t10.flac:321c111186fafa63e715ba6ce46e5c08
gd82-07-29d1t11.flac:83464b7df373365a9a43cdf7addb7cfc
gd82-07-29d2t01.flac:db9c251c1020e02aef9815d40690e2c2
gd82-07-29d2t02.flac:d3d0cf73fb3d4a7e3bb22d38f1688b0d
gd82-07-29d2t03.flac:85a27b63910615c33204630567402fd3
gd82-07-29d2t04.flac:f377521d5668639bd9022efc18ba1b63
gd82-07-29d2t05.flac:ae0b0e5a9e15e826df8e61c2887af693
gd82-07-29d2t06.flac:5696483e24e38bf72f692338dba8ee75
gd82-07-29d2t07.flac:5b72e57c8bab988bfb52efa9921ead28
gd82-07-29d2t08.flac:2c31610d05fed0da07b21def77dc45a6
gd82-07-29d2t09.flac:1554b64b94f584f400bb15eb9d29469d
gd82-07-29d2t10.flac:9cc3a3726f0c438e52265892cb615ec4
gd82-07-29d2t11.flac:b876a69fbd86df8349d6296512a30559
TypeGrateful Dead
Last seederLast activity 18:55 ago
Size929.97 MB (975141407 Bytes)
Added2012-12-28 09:41:28
Views0
Hits408
Snatched260 times
Upped bygermain
Num files
[See full list]
26 files
Peers
[See full list]
1 seeder, 0 leechers = 1 peer total

Add a comment

1in10,000 2012-12-28 12:16:58
Thank you, thank you very much.
bluedogbeads 2012-12-28 12:35:41
smoker
balto7 2012-12-30 05:46:06
Thanks a lot!

Add a comment


http://etree.org : http://db.etree.org : http://forums.etree.org : http://wiki.etree.org : Legal : RSS Feed

Contents designed & maintained by the etree.org volunteers
1998-2014, etree.org, except where noted. All Rights Reserved.
Read our terms of service and privacy guidelines