bt.etree.org
etree.org Community Bittorrent Tracker
ArtistUmphrey's McGee
ShowUmphrey's McGee The Tabernacle Atlanta, Georgia 12/28/2012 (Schoeps CCM4V'S FOB)
Report this as
non-Trade-Friendly
Email us
Torrentum2012-12-28.flac16.torrent (click to download)
Downloads asum2012-12-28.flac16
Info hash980a79214e3df63b73746a555d50e006382f2c7f
DescriptionUmphrey's McGee
The Tabernacle
Atlanta, Georgia
12/28/2012

Source: Schoeps CCM4V'S(din)>Lunatec V2>Benchmark AD2K>
Sound Devices 722 (24/48)
FOB/DFC/KFC/ZFC/AARP Clamped To The Front Of Balcony
DSP: Sound Devices 722>Sound Forge 9.0>CD Wave>flac(16)
Recorded By: Z-Man
Seeded By: Z-Man

Disc I 1st Set

01 Aufwiesehen >
02 Professor Wormbag >
03 Cemetary Walk Part I
04 Slacker
05 E A T
06 Miami Virtue >
07 Walletsworth >
08 Cemetary Walk Part II

Disc II 2nd Set

01 Phil's Farm >
02 Puppet Strings >
03 Phil's Farm
04 Deeper
05 Intro >
06 The Floor

Disc III 2nd Set

01 Lenny
02 Plunger >
03 *Resolution >
04 Hollywood Nights
Encore:
05 Thanks
06 Prowler >
07 Puppet Strings

* With Eye Of The Tiger Jam

Flac Fingerprint

um2012-12-28d01t01.flac:e74ebff311883917cf1a671f65d82f1c
um2012-12-28d01t02.flac:2372075ba1e28c92cb42c5c952834e97
um2012-12-28d01t03.flac:9ab93271a42fd9d60488abe6622a5f5c
um2012-12-28d01t04.flac:13f4358b581ac1cf227a8175f1544cd7
um2012-12-28d01t05.flac:062b69a67f828752b8b270c778c0fdc5
um2012-12-28d01t06.flac:d91b6477ca2ce8320d4bb99c76da5c18
um2012-12-28d01t07.flac:3f5b3dfbb5796318c961c3834884bc99
um2012-12-28d01t08.flac:2b04c1760bfd132be8121233329cd649
um2012-12-28d02t01.flac:c10e1dd2afcd84fe6d455c0795c832d2
um2012-12-28d02t02.flac:d35f9c253e415186e5d6ad59c8aea08e
um2012-12-28d02t03.flac:31197d571d1545e6b29957eafcb157d8
um2012-12-28d02t04.flac:81e81b60e7cb75e8ff1b18428271e1c6
um2012-12-28d02t05.flac:56937b705f102816ed100b907a80e903
um2012-12-28d02t06.flac:afcb5c2379d36af76b1b754deed65640
um2012-12-28d03t01.flac:964ea5e7fb3e778de57e54cb5e74b435
um2012-12-28d03t02.flac:d006eb18d049f19220e5cbef7280cd33
um2012-12-28d03t03.flac:b8bc2455f8ffe52fd4b28a27bd3da269
um2012-12-28d03t04.flac:065ac51dfe0346d335880d62271ad9bb
um2012-12-28d03t05.flac:6201bdf65da3389862959df075e9cf42
um2012-12-28d03t06.flac:4ed6cef847fd17fb65730cc8a2408e34
um2012-12-28d03t07.flac:e6efda87a909e0ac9196c255bd25eb10

Shntool

length expanded size cdr WAVE problems fmt ratio filename
3:16.15 34609724 B --- -- ---xx flac 0.5341 um2012-12-28d01t01.flac
6:42.43 71013980 B --- -- ---xx flac 0.5058 um2012-12-28d01t02.flac
9:57.32 105386108 B --- -- ---xx flac 0.5143 um2012-12-28d01t03.flac
15:25.14 163202972 B --- -- ---xx flac 0.5357 um2012-12-28d01t04.flac
5:00.15 52955324 B --- -- ---xx flac 0.5210 um2012-12-28d01t05.flac
11:55.59 126264812 B --- -- ---xx flac 0.5496 um2012-12-28d01t06.flac
5:52.41 62189276 B --- -- ---xx flac 0.5303 um2012-12-28d01t07.flac
15:06.54 159945452 B --- -- ---xx flac 0.5154 um2012-12-28d01t08.flac
13:59.38 148089020 B --- -- ---xx flac 0.5051 um2012-12-28d02t01.flac
10:09.71 107594636 B --- -- ---xx flac 0.5231 um2012-12-28d02t02.flac
3:22.30 35703404 B --- -- ---xx flac 0.4951 um2012-12-28d02t03.flac
4:21.17 46080428 B --- -- ---xx flac 0.4989 um2012-12-28d02t04.flac
2:04.26 21934796 B --- -- ---xx flac 0.4424 um2012-12-28d02t05.flac
6:29.19 68664332 B --- -- ---xx flac 0.5071 um2012-12-28d02t06.flac
12:09.32 128670908 B --- -- ---xx flac 0.4618 um2012-12-28d03t01.flac
12:12.35 129207164 B --- -- ---xx flac 0.5139 um2012-12-28d03t02.flac
10:37.52 112489148 B --- -- ---xx flac 0.5104 um2012-12-28d03t03.flac
5:14.19 55434332 B --- -- ---xx flac 0.5862 um2012-12-28d03t04.flac
0:36.14 6383372 B --- -- ---xx flac 0.3874 um2012-12-28d03t05.flac
5:30.51 58331996 B --- -- ---xx flac 0.5214 um2012-12-28d03t06.flac
3:37.31 38351756 B --- -- ---xx flac 0.5296 um2012-12-28d03t07.flac
163:41.33 1732502940 B 0.5158 (21 files)













Checksumsum2012-12-28d01t01.flac:e74ebff311883917cf1a671f65d82f1c
um2012-12-28d01t02.flac:2372075ba1e28c92cb42c5c952834e97
um2012-12-28d01t03.flac:9ab93271a42fd9d60488abe6622a5f5c
um2012-12-28d01t04.flac:13f4358b581ac1cf227a8175f1544cd7
um2012-12-28d01t05.flac:062b69a67f828752b8b270c778c0fdc5
um2012-12-28d01t06.flac:d91b6477ca2ce8320d4bb99c76da5c18
um2012-12-28d01t07.flac:3f5b3dfbb5796318c961c3834884bc99
um2012-12-28d01t08.flac:2b04c1760bfd132be8121233329cd649
um2012-12-28d02t01.flac:c10e1dd2afcd84fe6d455c0795c832d2
um2012-12-28d02t02.flac:d35f9c253e415186e5d6ad59c8aea08e
um2012-12-28d02t03.flac:31197d571d1545e6b29957eafcb157d8
um2012-12-28d02t04.flac:81e81b60e7cb75e8ff1b18428271e1c6
um2012-12-28d02t05.flac:56937b705f102816ed100b907a80e903
um2012-12-28d02t06.flac:afcb5c2379d36af76b1b754deed65640
um2012-12-28d03t01.flac:964ea5e7fb3e778de57e54cb5e74b435
um2012-12-28d03t02.flac:d006eb18d049f19220e5cbef7280cd33
um2012-12-28d03t03.flac:b8bc2455f8ffe52fd4b28a27bd3da269
um2012-12-28d03t04.flac:065ac51dfe0346d335880d62271ad9bb
um2012-12-28d03t05.flac:6201bdf65da3389862959df075e9cf42
um2012-12-28d03t06.flac:4ed6cef847fd17fb65730cc8a2408e34
um2012-12-28d03t07.flac:e6efda87a909e0ac9196c255bd25eb10
TypeUmphrey's McGee
Last seederLast activity 22:08 ago
Size852.24 MB (893643008 Bytes)
Added2012-12-29 03:38:03
Views0
Hits386
Snatched214 times
Upped byzmanatl
Num files22 files
File List
[Hide list]
filenamesizemd5
um2012-12-28d01t04.flac83.38 MBN/A
um2012-12-28d01t08.flac78.62 MBN/A
um2012-12-28d02t01.flac71.33 MBN/A
um2012-12-28d01t06.flac66.19 MBN/A
um2012-12-28d03t02.flac63.33 MBN/A
um2012-12-28d03t01.flac56.66 MBN/A
um2012-12-28d03t03.flac54.76 MBN/A
um2012-12-28d02t02.flac53.67 MBN/A
um2012-12-28d01t03.flac51.69 MBN/A
um2012-12-28d01t02.flac34.25 MBN/A
um2012-12-28d02t06.flac33.21 MBN/A
um2012-12-28d01t07.flac31.45 MBN/A
um2012-12-28d03t04.flac30.99 MBN/A
um2012-12-28d03t06.flac29.01 MBN/A
um2012-12-28d01t05.flac26.31 MBN/A
um2012-12-28d02t04.flac21.93 MBN/A
um2012-12-28d03t07.flac19.37 MBN/A
um2012-12-28d01t01.flac17.63 MBN/A
um2012-12-28d02t03.flac16.86 MBN/A
um2012-12-28d02t05.flac9.25 MBN/A
um2012-12-28d03t05.flac2.36 MBN/A
um2012-12-28.textfile.txt4.0 kBN/A
Peers
[See full list]
1 seeder, 0 leechers = 1 peer total

Add a comment

gctaper64 2012-12-29 04:43:03
Thanks Z appreciate it...all your efforts..great TTB on 11/29 and great 10/26 Mule...hopin for shoeps for Mule too,but hey ya can't be everywhere...peace {I met you once in Chicago 10/24/09, the guy patching with the korg}
brofan 2012-12-29 05:37:21
Z-man on the spot, as usual.....thanks, Z!
jdmatt68 2012-12-29 06:33:52
thanks z! wish i was there... have fun!
TheBigV 2012-12-29 07:03:12
since i'm German i guess the opening song should be labeld
Auf Wiedersehen

i hope at least they mean that :-)
spikes852004 2012-12-29 07:06:48
Thanks Z, Show was amazing first night and all!!! Jake killing solo dual. Phil's Farm in&out all night. Still going now at 7AM.
wharfratjoe 2012-12-29 10:16:12
Thanks!
sean612 2012-12-29 10:21:58
Thanks Z.
tdwriter 2012-12-29 10:28:56
Quick work as usual, Z-Man!
See you tonight!

MSTaper
bvaz 2012-12-29 11:09:30
nice work z.
zmanatl 2012-12-29 11:59:10
An impressive way to kick off the 4 night Atlanta New Year's Run! The Tabernacle was not sold out, but pretty damn close. The energy was amazing. We all ended up setting up in the balcony as it should be. Team Dirty South was in full representation. Tonight we should have Russ joining us.

A very solid 1st set. Cemetary Walk is one of my favorites for sure and tonight, parts I And II did not disappoint. Second set was spot on. The opening segment featuring a killer Phil's Farm>Puppet Strings sammy was sweet. The Hollywood Nights set closer was perfect. Orechall and I saw the first one at HOB in Anaheim 3 years ago. As usual, the boys covered it oh so well. Chris had the sound dialed IN and Jefferson blew us away with the light show!

Grat to hang with Dany, Orechall, Dave, Adam and Carlie, John (Pops), Chris, Rob, Chrissy, Nick J., Lilly, and the rest of the gang!

Here are a few of my amateur video clips to witness some of the fun:

Prowler >
Puppet Strings:
http://youtu.be/stUjqb8zeYs

Plunger >
Resolution >
Holywood Nights:
http://youtu.be/iSsLkZx3xnE

Lenny:
http://youtu.be/S-pYL3qDaI0

Deeper:
http://youtu.be/EeNUV0LWbI0

End Of Cemetary Walk Part II:
http://youtu.be/L1OXgQmL_-0

Phil's Farm >
Puppet Strings >
Phil's Farm:
http://youtu.be/dm32-F8_d4U

The Floor:
http://youtu.be/dDLQ9vC9gKQ

Late night eats for Dany and I were a couple of bowls of Homeade Pasta Fagioli Soup (thanks to my honey), and some fresh White Mountain Bread!

Enjoy show #195 of 2012!
adamdowns 2012-12-29 16:34:33
Correction, last night WAS Sold Out! Umph Rawked the Roof off the tabby! Round 2 coming up!!

Add a comment


http://etree.org : http://db.etree.org : http://forums.etree.org : http://wiki.etree.org : Legal : RSS Feed

Contents designed & maintained by the etree.org volunteers
1998-2014, etree.org, except where noted. All Rights Reserved.
Read our terms of service and privacy guidelines