bt.etree.org
etree.org Community Bittorrent Tracker
ArtistUmphrey's McGee
ShowUmphrey's McGee The Tabernacle Atlanta, Georgia 12/29/2012 (Schoeps CCM4V'S FOB)
Report this as
non-Trade-Friendly
Email us
Torrentum2012-12-29.flac16.torrent (click to download)
Downloads asum2012-12-29.flac16
Info hashae651f60a6c5f458f5d96666bf7fe6e8bcdd4864
db linkhttp://db.etree.org/shn/123282 | Show | Source
DescriptionUmphrey's McGee
The Tabernacle
Atlanta, Georgia
12/29/2012

Source: Schoeps CCM4V'S(din)>Lunatec V2>Benchmark AD2K>
Sound Devices 722 (24/48)
FOB/DFC/KFC/ZFC/AARP Clamped To The Front Of Balcony
DSP: Sound Devices 722>Sound Forge 9.0>CD Wave>flac(16)
Recorded By: Z-Man
Seeded By: Z-Man

Disc I 1st Set

01 Intro Music On PA >
02 Drink My Drank >
03 *Der Bluten Kat >
04 Hangover >
05 Who Knows >
06 Hangover
07 Loose Ends >
08 Der Bluten Kat
09 Example I
10 Senor Mouse

Disc II 2nd Set

01 1348 >
02 Day Nurse
03 Synchopated Strangers >
04 Linear >
05 Conduit

Disc III 2nd Set Con't

01 Ryan Banter
02 #Wish
03 August >
04 1348
Encore:
05 Thanks/Banter
06 Divisions >
07 Drum Solo >
08 Divisions

* With Kula Jam
# First Time Played

Flac Fingerprint

um2012-12-29d01t01.flac:1b31ddec77a24ed09a6d67b99b85ebd1
um2012-12-29d01t02.flac:afd06cc559913ad1cb8006ff592c203a
um2012-12-29d01t03.flac:a82bc6efcbde1c4e2c94b87fb02eb6a7
um2012-12-29d01t04.flac:04d56a56d7f9e4dad308cbf61607ddb1
um2012-12-29d01t05.flac:0086e41b6d01e4f2105b1dda2a4b636a
um2012-12-29d01t06.flac:530f96362d278b5fbefa7a5725876f3a
um2012-12-29d01t07.flac:79e7c34845112534a4cbe699da8a7525
um2012-12-29d01t08.flac:de44eaa23bcc62fc35d97fbba7165196
um2012-12-29d01t09.flac:0d0da2424bf57199d7f03af98cce2c52
um2012-12-29d01t10.flac:e846cc79deab57c54d5ee3605e40ad24
um2012-12-29d02t01.flac:6d491f6f993dfc3602abd1dc13cba1aa
um2012-12-29d02t02.flac:8cb762690769da5e1cd92145bc251425
um2012-12-29d02t03.flac:c7d6336ab4f4edc837955811824b03c9
um2012-12-29d02t04.flac:dfb5e9e7e6eb1ce604705fb4b9483c6d
um2012-12-29d02t05.flac:0dec7283f45aaf37e166f68a2107d7c2
um2012-12-29d03t01.flac:9d45203491de4756e32a67d97b40aa0d
um2012-12-29d03t02.flac:3047fc7c8f74a7fbb7fe6f2e902bad4e
um2012-12-29d03t03.flac:4bee56e135774f7613d8d7b666e7c943
um2012-12-29d03t04.flac:dd8ced6575a05b8122993f4e45d52842
um2012-12-29d03t05.flac:4f2a6f214357ab0f1fe0508692e35c35
um2012-12-29d03t06.flac:4a1ac532ce4f65cdc2efb7bc74d0e30a
um2012-12-29d03t07.flac:026863e73c1757a2e2823663e1ff24b6
um2012-12-29d03t08.flac:b63f389285d0d29d67ae085890304ce4

Shntool

length expanded size cdr WAVE problems fmt ratio filename
1:31.49 16167692 B --- -- ---xx flac 0.4385 um2012-12-29d01t01.flac
3:54.23 41331740 B --- -- ---xx flac 0.5548 um2012-12-29d01t02.flac
15:11.74 160874492 B --- -- ---xx flac 0.5494 um2012-12-29d01t03.flac
6:56.33 73460060 B --- -- ---xx flac 0.5370 um2012-12-29d01t04.flac
3:00.59 31890812 B --- -- ---xx flac 0.5513 um2012-12-29d01t05.flac
2:35.07 27358508 B --- -- ---xx flac 0.5008 um2012-12-29d01t06.flac
7:11.57 76162508 B --- -- ---xx flac 0.5568 um2012-12-29d01t07.flac
11:26.22 121062188 B --- -- ---xx flac 0.5377 um2012-12-29d01t08.flac
12:17.57 130140908 B --- -- ---xx flac 0.5299 um2012-12-29d01t09.flac
8:27.72 89604188 B --- -- ---xx flac 0.5287 um2012-12-29d01t10.flac
14:44.17 155977628 B --- -- ---xx flac 0.5163 um2012-12-29d02t01.flac
7:15.25 76792844 B --- -- ---xx flac 0.5164 um2012-12-29d02t02.flac
8:24.21 88955036 B --- -- ---xx flac 0.4912 um2012-12-29d02t03.flac
10:35.19 112058732 B --- -- ---xx flac 0.5127 um2012-12-29d02t04.flac
12:40.68 134223980 B --- -- ---xx flac 0.5346 um2012-12-29d02t05.flac
0:52.45 9278684 B --- -- ---xx flac 0.4825 um2012-12-29d03t01.flac
4:52.53 51633500 B --- -- ---xx flac 0.5253 um2012-12-29d03t02.flac
15:47.20 167097884 B --- -- ---xx flac 0.5194 um2012-12-29d03t03.flac
1:56.29 20530652 B --- -- ---xx flac 0.5456 um2012-12-29d03t04.flac
0:50.29 8888252 B --- -- ---xx flac 0.4079 um2012-12-29d03t05.flac
5:16.56 55874156 B --- -- ---xx flac 0.5218 um2012-12-29d03t06.flac
2:30.70 26624684 B --- -- ---xx flac 0.5021 um2012-12-29d03t07.flac
9:18.05 98443004 B --- -- ---xx flac 0.4887 um2012-12-29d03t08.flac
167:39.10 1774432132 B 0.5241 (23 files)













Checksumsum2012-12-29d01t01.flac:1b31ddec77a24ed09a6d67b99b85ebd1
um2012-12-29d01t02.flac:afd06cc559913ad1cb8006ff592c203a
um2012-12-29d01t03.flac:a82bc6efcbde1c4e2c94b87fb02eb6a7
um2012-12-29d01t04.flac:04d56a56d7f9e4dad308cbf61607ddb1
um2012-12-29d01t05.flac:0086e41b6d01e4f2105b1dda2a4b636a
um2012-12-29d01t06.flac:530f96362d278b5fbefa7a5725876f3a
um2012-12-29d01t07.flac:79e7c34845112534a4cbe699da8a7525
um2012-12-29d01t08.flac:de44eaa23bcc62fc35d97fbba7165196
um2012-12-29d01t09.flac:0d0da2424bf57199d7f03af98cce2c52
um2012-12-29d01t10.flac:e846cc79deab57c54d5ee3605e40ad24
um2012-12-29d02t01.flac:6d491f6f993dfc3602abd1dc13cba1aa
um2012-12-29d02t02.flac:8cb762690769da5e1cd92145bc251425
um2012-12-29d02t03.flac:c7d6336ab4f4edc837955811824b03c9
um2012-12-29d02t04.flac:dfb5e9e7e6eb1ce604705fb4b9483c6d
um2012-12-29d02t05.flac:0dec7283f45aaf37e166f68a2107d7c2
um2012-12-29d03t01.flac:9d45203491de4756e32a67d97b40aa0d
um2012-12-29d03t02.flac:3047fc7c8f74a7fbb7fe6f2e902bad4e
um2012-12-29d03t03.flac:4bee56e135774f7613d8d7b666e7c943
um2012-12-29d03t04.flac:dd8ced6575a05b8122993f4e45d52842
um2012-12-29d03t05.flac:4f2a6f214357ab0f1fe0508692e35c35
um2012-12-29d03t06.flac:4a1ac532ce4f65cdc2efb7bc74d0e30a
um2012-12-29d03t07.flac:026863e73c1757a2e2823663e1ff24b6
um2012-12-29d03t08.flac:b63f389285d0d29d67ae085890304ce4
TypeUmphrey's McGee
Last seederLast activity 31:21 ago
Size886.85 MB (929926601 Bytes)
Added2012-12-30 03:54:26
Views0
Hits307
Snatched138 times
Upped byzmanatl
Num files
[See full list]
24 files
Seeders
[Hide list]
1 Seeder(s)
ip:portclient
version
ul
bytes
dl
bytes
ratiocompleteul
rate
dl
rate
time
connected
time
left
idle
108.215.109.xxx:34135 μtorrent 3.1.3.0 0 B 0 B N/A 100.00%
N/A N/A 2 days, 16:04:12 N/A 31:21
0 of 1 firewalled (0%) 100.00%
N/AN/A
Leechers
[Hide list]
0 Leecher(s)

Add a comment

sean612 2012-12-30 18:51:42
Thank you Z-man!

Add a comment


http://etree.org : http://db.etree.org : http://forums.etree.org : http://wiki.etree.org : Legal : RSS Feed

Contents designed & maintained by the etree.org volunteers
1998-2014, etree.org, except where noted. All Rights Reserved.
Read our terms of service and privacy guidelines