bt.etree.org
etree.org Community Bittorrent Tracker
ArtistGrateful Dead
Showgd77-03-19.sbd.miller.123190.flac16
Report this as
non-Trade-Friendly
Email us
Torrentgd77-03-19.sbd.miller.123190.flac16.torrent (click to download)
Downloads asgd77-03-19.sbd.miller.123190.flac16
Info hash2608310757fc8e5dae1301a7d24b62672a1ebb44
db linkhttp://db.etree.org/shn/123190 | Show | Source
DescriptionGrateful Dead - March 19, 1977
Winterland Arena - San Francisco, CA

Recording Info:
SBD -> Master Reel -> Dat -> AIFF

Mastering Info:
AIFF -> Samplitude Professional v11.2.1 -> FLAC
(3 Discs Audio / 1 DVD FLAC)

Mastered By Charlie Miller
charliemiller87@earthlink.net
December 21, 2012

Patch Info:
Matrix recording (shnid=96856) supplies:
Franklin's Tower (8:54 - 9:24)

Notes:
-- Terrapin Station has some fluttering but not too bad
-- Thanks to David Gans for transferring his Dat for me

Set 1:
d1t01 - Bertha
d1t02 - Mama Tried
d1t03 - Loser
d1t04 - Big River
d1t05 - They Love Each Other
d1t06 - Looks Like Rain
d1t07 - Tennessee Jed
d1t08 - Estimated Prophet
d2t01 - Terrapin Station ->
d2t02 - Playing In The Band ->
d2t03 - Samson And Delilah ->
d2t04 - Playing In The Band

Set 2:
d3t01 - Tuning
d3t02 - Eyes Of The World ->
d3t03 - Dancing In The Street ->
d3t04 - Wharf Rat ->
d3t05 - Franklin's Tower ->
d3t06 - Sugar Magnolia

Encore:
d3t07 - One More Saturday Night
d3t08 - Uncle John's Band


SHNTOOL OUTPUT:
length expanded size cdr WAVE problems fmt ratio filename
7:18.21 77312636 B --- -- ---xx flac 0.5650 gd77-03-19d1t01.flac
3:48.16 40256876 B --- -- ---xx flac 0.5370 gd77-03-19d1t02.flac
8:34.55 90799004 B --- -- ---xx flac 0.5356 gd77-03-19d1t03.flac
8:19.16 88061276 B --- -- ---xx flac 0.5492 gd77-03-19d1t04.flac
7:29.58 79340060 B --- -- ---xx flac 0.5598 gd77-03-19d1t05.flac
11:54.31 126022556 B --- -- ---xx flac 0.4881 gd77-03-19d1t06.flac
8:55.67 94531628 B --- -- ---xx flac 0.5653 gd77-03-19d1t07.flac
8:28.50 89728844 B --- -- ---xx flac 0.5844 gd77-03-19d1t08.flac
10:34.04 111847052 B --- -- ---xx flac 0.5466 gd77-03-19d2t01.flac
12:23.61 131208716 B --- -- ---xx flac 0.5832 gd77-03-19d2t02.flac
7:06.49 75261692 B --- -- ---xx flac 0.6031 gd77-03-19d2t03.flac
11:31.53 122017100 B --- -- ---xx flac 0.5416 gd77-03-19d2t04.flac
3:38.53 38579900 B --- -- ---xx flac 0.3764 gd77-03-19d3t01.flac
14:52.11 157374716 B --- -- ---xx flac 0.5814 gd77-03-19d3t02.flac
10:36.58 112326860 B --- -- ---xx flac 0.6106 gd77-03-19d3t03.flac
9:51.41 104348876 B --- -- ---xx flac 0.5686 gd77-03-19d3t04.flac
13:24.49 141940892 B --- -- ---xx flac 0.5643 gd77-03-19d3t05.flac
11:13.18 118759580 B --- -- ---xx flac 0.5540 gd77-03-19d3t06.flac
6:44.10 71289164 B --- -- ---xx flac 0.5504 gd77-03-19d3t07.flac
9:21.16 98998076 B --- -- ---xx flac 0.5642 gd77-03-19d3t08.flac
186:07.62 1970005504 B 0.5574 (20 files)
Checksumsgd77-03-19d1t01.flac:0dde0de34e52fb42b2887861aa068860
gd77-03-19d1t02.flac:6c728a407180b6e7cd7e4bd5ec63c17c
gd77-03-19d1t03.flac:412b1d8bbf48eec507e6cd7d8fb82e3a
gd77-03-19d1t04.flac:fc5df9f4dbd4f5b0f8555d1956b01d6b
gd77-03-19d1t05.flac:6105cd31bb5b7ee2e653326c994dd57f
gd77-03-19d1t06.flac:8c7286e99a04c2cdb1045a8756a93f76
gd77-03-19d1t07.flac:006b57158e7585186af7a9fab9fcbc07
gd77-03-19d1t08.flac:1655e1dcf3a3add022b3e400fa18f216
gd77-03-19d2t01.flac:86e32901a4cc974c9ae432dcd36a8abc
gd77-03-19d2t02.flac:fc1645f6bf6aec9a07ed85634b068bce
gd77-03-19d2t03.flac:c1ad5b2953b8b04a5f0f1b4b90dec23a
gd77-03-19d2t04.flac:a6fc17516c581b55c89cfd34e25caa9d
gd77-03-19d3t01.flac:a38bdb87e270175cc6a6dcb1b7618fcb
gd77-03-19d3t02.flac:36f0a404039374978fa4697c0354af90
gd77-03-19d3t03.flac:db0126419af5e9e47678cf950bfaf13d
gd77-03-19d3t04.flac:89d5cc66f44b53d7d9292912176e17a1
gd77-03-19d3t05.flac:3b0d2cf826fb9882a498aec2edf33a91
gd77-03-19d3t06.flac:cfc0d415f91ccfb0c81e2bda6b5b4ba4
gd77-03-19d3t07.flac:3579a83ba39d19ddc4a7d81863832e9d
gd77-03-19d3t08.flac:7259c50fc7cfa8adf3b61d1028223b41

1588d3f00a683f43056d281d495833a4 *gd77-03-19d1t01.flac
f4b5ad93fdc99c5803bd5f996079368e *gd77-03-19d1t02.flac
ef9b8735285a7193edad43cc3a999bae *gd77-03-19d1t03.flac
85fefac21d876ccf232646a670fd9c54 *gd77-03-19d1t04.flac
483b7f10a9cb110e91b2fc37efef9248 *gd77-03-19d1t05.flac
c3e2957442b49a279bf5bb7fabdffccd *gd77-03-19d1t06.flac
e8f9ed4af0912b1f0018ba5160795b27 *gd77-03-19d1t07.flac
afa3f7d495ee43cc8131bfb8efb73539 *gd77-03-19d1t08.flac
84b884acebd90be82bb36c8f8adc3c59 *gd77-03-19d2t01.flac
9a5177ee826b851f5082414225ea1cf5 *gd77-03-19d2t02.flac
be5b3fe724d2939c936015057424b0f1 *gd77-03-19d2t03.flac
be52a42cea8af636dd96e5f5ec2ddbb6 *gd77-03-19d2t04.flac
67de561a43aa17471100f25a3b7d0ab1 *gd77-03-19d3t01.flac
46333c08031c2605c63142e7aeb7a123 *gd77-03-19d3t02.flac
e723792d79c64d2a97e9551a52551962 *gd77-03-19d3t03.flac
1bdd804edd600586dbe90fc511864147 *gd77-03-19d3t04.flac
93c1ec66342dec321c3da4fad711a699 *gd77-03-19d3t05.flac
5e58e585557296f48af9612df39adca4 *gd77-03-19d3t06.flac
553b9930f7d0fb6c849b22ba324afec1 *gd77-03-19d3t07.flac
3ebd7a2bd623278ebc2c55441ccd3678 *gd77-03-19d3t08.flac
TypeGrateful Dead
Last seederLast activity 5:31 ago
Size1.023 GB (1098150816 Bytes)
Added2012-12-30 17:17:34
Views0
Hits1201
Snatched892 times
Upped byenso
Num files
[See full list]
23 files
Peers
[See full list]
5 seeders, 0 leechers = 5 peers total

Add a comment

williewonka 2012-12-30 22:16:59
Thanks
i-miss-tol 2012-12-31 16:38:20
sublime Eyes, funky Dancin', delicious Franklin's....terrific second set, thanx cm
opener17 2012-12-31 17:52:17
ty
thewaymouth 2013-05-03 14:25:47
Thanks for this tasty delight!
porvida 2014-02-15 14:04:53
Thanks a lot!

Add a comment


http://etree.org : http://db.etree.org : http://forums.etree.org : http://wiki.etree.org : Legal : RSS Feed

Contents designed & maintained by the etree.org volunteers
1998-2014, etree.org, except where noted. All Rights Reserved.
Read our terms of service and privacy guidelines