bt.etree.org
etree.org Community Bittorrent Tracker
ArtistYonder Mountain String Band
ShowYonder Mountain String Band 2012-12-28. Boulder Theater - Boulder, CO. *4 ch schoeps*
Report this as
non-Trade-Friendly
Email us
TorrentYMSB 2012-12-28 4ch schoeps flac.torrent (click to download)
Downloads asYMSB 2012-12-28 4ch schoeps flac
Info hash25df0546b336db9a690c79e7df410e5a2ba5e3b5
DescriptionYonder Mountain String Band
2012/28/12 (Fri)
Boulder Theater - Boulder, CO


* 16 bit *


Source: Schoeps-CCM4's( Wide ORTF)>Vms5u + Schoeps-CCM41v's>(ORTF)> V3 spdif> R-44(OCM)>@24/48
Location: FOB/DFC 40 ft from stage
Transfer: R44>cd wave>wavelab(fades/resample)>trader's little helper>flac> tagged in foobar 2000
Taped & transferred by Jamie Scott


Set 1:

01 Intro
02 What The Night Brings
03 Straight Line
04 Another Day
05 Come Together
06 Little Lover
07 Wildewood Drive
08 Years With Rose>
09 Bolton Stretch
10 Big Spike Hammer
11 New Horizons>
12 Steep Grade Sharp Curves>
13 New Horizons


Set 2:

01 Intro
02 Elzic's Farewell>
03 Sidehsow Blues
04 Fingerprint
05 Complicated
06 Left Me In A Hole
07 Classic Situation
08 Ten
09 Must've Had Your Reasons
10 You're No Good
11 And Your Bird Can Sing
12 Steam Powered Aereoplane
13 Mother's Only Son>
14 Illinois Rain
15 Crowd

Encore:

16 Head Of That Woman
17 At The End Of The Day
18 Redbird
Checksums; flac fingerprint file generated by Trader's Little Helper
; generated on December 30, 2012, at 13:04:15

ymsb 2012-12-28 4ch d1t01.flac:e6134d82ad73b964eba0cff8e23068ac
ymsb 2012-12-28 4ch d1t02.flac:258633dabd00daec74c7dc8216682361
ymsb 2012-12-28 4ch d1t03.flac:bbf8574ba84d5063b370c46fb339a012
ymsb 2012-12-28 4ch d1t04.flac:811fd9f12f8dad11ee3eaa6115ce7fc0
ymsb 2012-12-28 4ch d1t05.flac:6c17cbbcc759d330861c1a9adbe7627d
ymsb 2012-12-28 4ch d1t06.flac:069abbfc5699a11500bb96779709a56b
ymsb 2012-12-28 4ch d1t07.flac:9e7e0a2ac70e29502d699513bffaf603
ymsb 2012-12-28 4ch d1t08.flac:2fab64956ca389d4e6513f4cc68e153d
ymsb 2012-12-28 4ch d1t09.flac:3c7a449dd01681f265e8e349538fcda6
ymsb 2012-12-28 4ch d1t10.flac:5a1727f349a91b1f9199af6085ce4c69
ymsb 2012-12-28 4ch d1t11.flac:947303b97a15ae635b8bd00a3259bc7d
ymsb 2012-12-28 4ch d1t12.flac:f4d6c56ae075c2638c4388bd1e300969
ymsb 2012-12-28 4ch d1t13.flac:7dc6865724d715c753ab56ae4d0cf8af
ymsb 2012-12-28 4ch d2t01.flac:d2f6ed123abb142b42a4dc1c09818381
ymsb 2012-12-28 4ch d2t02.flac:829cf89a093fd2ec0bdebb1828f96be2
ymsb 2012-12-28 4ch d2t03.flac:7e3e885bf66bd17f0c7790df867954e2
ymsb 2012-12-28 4ch d2t04.flac:1c1e44eefb217bd5b6c173097c25ba0b
ymsb 2012-12-28 4ch d2t05.flac:a1ff5036d6955ff206068c65c2aab404
ymsb 2012-12-28 4ch d2t06.flac:460c22b94c65545a1b1d93a44255972b
ymsb 2012-12-28 4ch d2t07.flac:6a11d4b5e071da23be56a4023f8959a5
ymsb 2012-12-28 4ch d2t08.flac:b6e73973f0c8b37977b50cfd4e57c7bc
ymsb 2012-12-28 4ch d2t09.flac:306c2ed27b0ee8a7510ff5ed753700ea
ymsb 2012-12-28 4ch d2t10.flac:e2b06e8caf3488390182dd0f1189f2da
ymsb 2012-12-28 4ch d2t11.flac:f833007895cb8b486f2e0062018b1a9a
ymsb 2012-12-28 4ch d2t12.flac:93e8c1b59ef32178029ae2ca899403fb
ymsb 2012-12-28 4ch d2t13.flac:957558f62458ea24b810996709b951db
ymsb 2012-12-28 4ch d2t14.flac:fc0db36f883554a5df810cfea123bf3a
ymsb 2012-12-28 4ch d2t15.flac:af8cc2178778beeb12235f565a603b1a
ymsb 2012-12-28 4ch d2t16.flac:6674dbe754712117c975b58a74d9360b
ymsb 2012-12-28 4ch d2t17.flac:9acf3daf0ad72822658ea61f2ede2f98
ymsb 2012-12-28 4ch d2t18.flac:cb0e4912b2eae14ff5c92384b285e1d5

shntool 3.0.4
Copyright (C) 2000-2007 Jason Jordan <shnutils@freeshell.org>

length expanded size cdr WAVE problems fmt ratio filename
1:35.44 16861532 B --- -- ---xx flac 0.4403 ymsb 2012-12-28 4ch d1t01.flac
5:35.62 59239868 B --- -- ---xx flac 0.5610 ymsb 2012-12-28 4ch d1t02.flac
3:59.66 42314876 B --- -- ---xx flac 0.5685 ymsb 2012-12-28 4ch d1t03.flac
2:51.68 30324380 B --- -- ---xx flac 0.5915 ymsb 2012-12-28 4ch d1t04.flac
6:36.35 69936764 B --- -- ---xx flac 0.5527 ymsb 2012-12-28 4ch d1t05.flac
3:14.42 34320428 B --- -- ---xx flac 0.5779 ymsb 2012-12-28 4ch d1t06.flac
5:20.49 56563292 B --- -- ---xx flac 0.5565 ymsb 2012-12-28 4ch d1t07.flac
7:20.08 77634860 B --- -- ---xx flac 0.5667 ymsb 2012-12-28 4ch d1t08.flac
3:24.25 36044444 B --- -- ---xx flac 0.5877 ymsb 2012-12-28 4ch d1t09.flac
4:13.20 44676284 B --- -- ---xx flac 0.5672 ymsb 2012-12-28 4ch d1t10.flac
5:40.04 59985452 B --- -- ---xx flac 0.5776 ymsb 2012-12-28 4ch d1t11.flac
5:53.40 62363324 B --- -- ---xx flac 0.5908 ymsb 2012-12-28 4ch d1t12.flac
3:42.25 39219644 B --- -- ---xx flac 0.5857 ymsb 2012-12-28 4ch d1t13.flac
1:52.74 19930892 B --- -- ---xx flac 0.4608 ymsb 2012-12-28 4ch d2t01.flac
6:42.40 71006924 B --- -- ---xx flac 0.5504 ymsb 2012-12-28 4ch d2t02.flac
5:13.60 55354364 B --- -- ---xx flac 0.5884 ymsb 2012-12-28 4ch d2t03.flac
5:34.33 58995260 B --- -- ---xx flac 0.5515 ymsb 2012-12-28 4ch d2t04.flac
5:10.73 54855740 B --- -- ---xx flac 0.5607 ymsb 2012-12-28 4ch d2t05.flac
6:32.54 69275852 B --- -- ---xx flac 0.5646 ymsb 2012-12-28 4ch d2t06.flac
4:13.45 44735084 B --- -- ---xx flac 0.5752 ymsb 2012-12-28 4ch d2t07.flac
12:26.61 131737916 B --- -- ---xx flac 0.5580 ymsb 2012-12-28 4ch d2t08.flac
3:14.69 34383932 B --- -- ---xx flac 0.5473 ymsb 2012-12-28 4ch d2t09.flac
3:16.07 34590908 B --- -- ---xx flac 0.5431 ymsb 2012-12-28 4ch d2t10.flac
3:19.39 35195372 B --- -- ---xx flac 0.5571 ymsb 2012-12-28 4ch d2t11.flac
5:20.20 56495084 B --- -- ---xx flac 0.5635 ymsb 2012-12-28 4ch d2t12.flac
11:04.53 117254300 B --- -- ---xx flac 0.5737 ymsb 2012-12-28 4ch d2t13.flac
6:18.55 66808604 B --- -- ---xx flac 0.5972 ymsb 2012-12-28 4ch d2t14.flac
2:13.04 23470652 B --- -- ---xx flac 0.4964 ymsb 2012-12-28 4ch d2t15.flac
2:30.30 26530604 B --- -- ---xx flac 0.5622 ymsb 2012-12-28 4ch d2t16.flac
4:32.74 48154892 B --- -- ---xx flac 0.5650 ymsb 2012-12-28 4ch d2t17.flac
3:25.48 36274940 B --- -- ---xx flac 0.5710 ymsb 2012-12-28 4ch d2t18.flac
152:32.52 1614536468 B 0.5641 (31 files)
TypeYonder Mountain String Band
Last seederLast activity 100 days, 18:50:26 ago
Size868.59 MB (910782088 Bytes)
Added2012-12-30 17:30:01
Views0
Hits294
Snatched151 times
Upped byncknottypine
Num files
[See full list]
33 files
Peers
[See full list]
1 seeder, 0 leechers = 1 peer total

Add a comment

phishy12 2012-12-30 18:18:53
nice job rider!!!! wish i was there with you. the phish just hasn't done it for me so far........ happy new years brother!!
ncknottypine 2012-12-30 18:24:50
same too u buddy!

Add a comment


http://etree.org : http://db.etree.org : http://forums.etree.org : http://wiki.etree.org : Legal : RSS Feed

Contents designed & maintained by the etree.org volunteers
1998-2014, etree.org, except where noted. All Rights Reserved.
Read our terms of service and privacy guidelines