bt.etree.org
etree.org Community Bittorrent Tracker
ArtistGrateful Dead
Showgd77-10-01.sbd.miller.123211.flac16
Report this as
non-Trade-Friendly
Email us
Torrentgd77-10-01.sbd.miller.123211.flac16.torrent (click to download)
Downloads asgd77-10-01.sbd.miller.123211.flac16
Info hash61afcebdef391ba5b4da0923952e3a4eabdf649e
db linkhttp://db.etree.org/shn/123211 | Show | Source
DescriptionGrateful Dead - October 1, 1977
Paramount Theatre - Portland, OR

Recording Info:
SBD -> Master Reel -> PCM -> Dat

Transfer Info:
Dat (Tascam DA-20) -> Tascam SS-R05 -> Samplitude Professional v11.2.1 -> FLAC
(3 Discs Audio / 1 DVD FLAC)

All Transfers and Mastering By Charlie Miller
charliemiller87@earthlink.net
December 24, 2012

Patch Info:
AKG D224e -> Cassette Master -> FLAC (from Matt Smith) supplies:
Promised Land (0:00 - 0:3 (1:38 - end of track)
They Love Each Other (0:00 - 4:20)

Notes:
-- Set 2 is seamless
-- Most of the static in Estimated Prophet has been cleaned up
-- Tape flip in Drums

Set 1:
d1t01 - Promised Land
d1t02 - They Love Each Other
d1t03 - Mexicali Blues
d1t04 - Dire Wolf
d1t05 - Cassidy
d1t06 - Deal
d1t07 - Passenger
d1t08 - Tennessee Jed
d1t09 - New Minglewood Blues
d1t10 - Peggy-O
d1t11 - The Music Never Stopped

Set 2:
d2t01 - Tuning
d2t02 - Bertha ->
d2t03 - Good Lovin'
d2t04 - It Must Have Been The Roses
d2t05 - Estimated Prophet ->
d2t06 - Eyes Of The World ->
d2t07 - Dancing In The Street ->
d2t08 - Drums ->
d3t01 - Not Fade Away ->
d3t02 - Black Peter ->
d3t03 - Around And Around


SHNTOOL OUTPUT:
length expanded size cdr WAVE problems fmt ratio filename
4:44.72 50266988 B --- -- ---xx flac 0.5858 gd77-10-01d1t01.flac
9:14.44 97829132 B --- -- ---xx flac 0.5053 gd77-10-01d1t02.flac
4:32.09 48002012 B --- -- ---xx flac 0.5114 gd77-10-01d1t03.flac
4:19.41 45784076 B --- -- ---xx flac 0.5185 gd77-10-01d1t04.flac
5:16.05 55754204 B --- -- ---xx flac 0.5490 gd77-10-01d1t05.flac
7:45.10 82049564 B --- -- ---xx flac 0.4926 gd77-10-01d1t06.flac
4:03.61 43008716 B --- -- ---xx flac 0.5693 gd77-10-01d1t07.flac
8:31.06 90154556 B --- -- ---xx flac 0.5456 gd77-10-01d1t08.flac
6:08.38 65004620 B --- -- ---xx flac 0.5344 gd77-10-01d1t09.flac
9:33.71 101244236 B --- -- ---xx flac 0.4925 gd77-10-01d1t10.flac
8:01.30 84919004 B --- -- ---xx flac 0.5867 gd77-10-01d1t11.flac
1:44.66 18500876 B --- -- ---xx flac 0.3249 gd77-10-01d2t01.flac
6:08.19 64959932 B --- -- ---xx flac 0.6025 gd77-10-01d2t02.flac
7:23.52 78267548 B --- -- ---xx flac 0.5402 gd77-10-01d2t03.flac
9:48.63 103871420 B --- -- ---xx flac 0.4698 gd77-10-01d2t04.flac
9:44.74 103191692 B --- -- ---xx flac 0.5686 gd77-10-01d2t05.flac
11:58.35 126737564 B --- -- ---xx flac 0.5639 gd77-10-01d2t06.flac
10:40.25 112954844 B --- -- ---xx flac 0.5825 gd77-10-01d2t07.flac
4:52.04 51518252 B --- -- ---xx flac 0.5453 gd77-10-01d2t08.flac
10:43.52 113547548 B --- -- ---xx flac 0.5792 gd77-10-01d3t01.flac
8:59.68 95239580 B --- -- ---xx flac 0.4827 gd77-10-01d3t02.flac
8:21.23 88430540 B --- -- ---xx flac 0.5853 gd77-10-01d3t03.flac
162:37.43 1721236904 B 0.5403 (22 files)
Checksumsb0c2cb5e2324f88b3cdbe3c626319712 *gd77-10-01d1t01.flac
064b04006897ea9e62af125d73f5d4ec *gd77-10-01d1t02.flac
d31f3884aa9cfd05dab5988214724cd8 *gd77-10-01d1t03.flac
9a1d99d52f2c412111f95d0e50cd05df *gd77-10-01d1t04.flac
f84f76538682618e1fc4f12d6350a8a1 *gd77-10-01d1t05.flac
39499c0d4bc6575284756cadaf454ec7 *gd77-10-01d1t06.flac
158d73a2b316be05e5d38af6ea6b6737 *gd77-10-01d1t07.flac
6e51e00f37a19ceb17e59fd9935aab37 *gd77-10-01d1t08.flac
b1ba8b56ce1064c5997863dbed0d163e *gd77-10-01d1t09.flac
65b150817f2d569a98586e8ef029164b *gd77-10-01d1t10.flac
75522c7e90b2f18ea5b1d3d11f760986 *gd77-10-01d1t11.flac
57ae84053b7a60c859f0fb2f82752aa7 *gd77-10-01d2t01.flac
248a13f8bb5d42a04a0244b55b5d106c *gd77-10-01d2t02.flac
2caf01c18227cc76bc2b53bb27ca010c *gd77-10-01d2t03.flac
3ee99fa48ef3e2ad08528945603568f6 *gd77-10-01d2t04.flac
807399d0d86f56ed0e6c1385e8559689 *gd77-10-01d2t05.flac
8a88be52651cba75c287dc68360780aa *gd77-10-01d2t06.flac
0b1d38f28b1ab7b1579049235a960f6e *gd77-10-01d2t07.flac
8d7f6efc38a8a7f5395a018afeb4bf32 *gd77-10-01d2t08.flac
b1bfc938763759a96450f9225fb1efcd *gd77-10-01d3t01.flac
af14ef7ecb9f9f5a9b788e8403141602 *gd77-10-01d3t02.flac
113df0af822714f65cb185376ecc1e42 *gd77-10-01d3t03.flac


gd77-10-01d1t01.flac:f37fec3d3d257e08e33e0b59dd180b13
gd77-10-01d1t02.flac:4ce2eb235534b0ec4422430cf39fd60d
gd77-10-01d1t03.flac:1662bed596538faefae927b5852c1087
gd77-10-01d1t04.flac:8b8666763086aded0505c938d250f987
gd77-10-01d1t05.flac:f16c3ad33899c9d06146ff7dd75b93f8
gd77-10-01d1t06.flac:ba9ba621c771646b9182e7cd26fe33db
gd77-10-01d1t07.flac:bf75e6d18c3db902388126f7b36c232d
gd77-10-01d1t08.flac:53dbd2f3a3f1eab3805db75e4178367a
gd77-10-01d1t09.flac:6d542cc3e8d8e3ee923587ac8a666900
gd77-10-01d1t10.flac:ce9a2de818d71351987fa5e503242f0a
gd77-10-01d1t11.flac:333e95c45b8841bb8a8c99e53faf66c8
gd77-10-01d2t01.flac:65e94073928cf5566df1df8ac96f1cfe
gd77-10-01d2t02.flac:fd95c57b3c37ec488ede7e851c90b825
gd77-10-01d2t03.flac:3b7704f8a2d0d14232dd8597a031158d
gd77-10-01d2t04.flac:f2af684c4ce106a79bd5345832b5bbe2
gd77-10-01d2t05.flac:3e734378d60a4b800929e90868d37034
gd77-10-01d2t06.flac:26a782b0fa5999b18dc5be817b0259b2
gd77-10-01d2t07.flac:041729ad714caafe534f6baf56ea4cd7
gd77-10-01d2t08.flac:ea24c9fc283b96cd266f0dd7b86ad581
gd77-10-01d3t01.flac:95646cf6bed1e35c7d11541e96f07554
gd77-10-01d3t02.flac:2263021ed8f79fc0d1d72209446c8809
gd77-10-01d3t03.flac:1be3387f13c0237987ca1d2db512ddbb
TypeGrateful Dead
Last seederLast activity 22:00 ago
Size886.96 MB (930049147 Bytes)
Added2012-12-30 17:31:54
Views0
Hits812
Snatched567 times
Upped byenso
Num files
[See full list]
25 files
Peers
[See full list]
5 seeders, 0 leechers = 5 peers total

Add a comment

enso 2012-12-30 17:37:11
This is a patched version of gd77-10-01.sbd.miller.123090.sbeok.flac16

http://bt.etree.org/details.php?id=560703
dewey72 2012-12-30 18:33:50
Great ups. Thanks!
rsterrapin 2012-12-31 09:10:30
Many thanks!
thewaymouth 2014-01-24 00:06:55
Please note: NFA @ 10:16 there is a skip -- nothing is missing, but it takes away from a subtle, beautiful moment in the music. This defect is on both the patched and unpatched Miller masters. This can be observed online at IA too, so it is not just my download.

However, this flaw is not on any of the other versions.

I love Mr. Charlie's work, but because of the above hitch, for this show I recommend the Cantor/Green Mountain Brothers version.

(I will email/mention it to Charlie in case he ever wants to revisit it.)

Add a comment


http://etree.org : http://db.etree.org : http://forums.etree.org : http://wiki.etree.org : Legal : RSS Feed

Contents designed & maintained by the etree.org volunteers
1998-2014, etree.org, except where noted. All Rights Reserved.
Read our terms of service and privacy guidelines