bt.etree.org
etree.org Community Bittorrent Tracker
ArtistYonder Mountain String Band
ShowYonder Mountain String Band 2012-12-29. Boulder Theater - Boulder, CO. * 4ch schoeps *
Report this as
non-Trade-Friendly
Email us
TorrentYMSB 2012-12-29 4ch schoeps flac.torrent (click to download)
Downloads asYMSB 2012-12-29 4ch schoeps flac
Info hashf2050cc94f07afa28f76d279a852284a408b87e1
DescriptionYonder Mountain String Band
2012/29/12 (Sat)
Boulder Theater - Boulder, CO


* 16 bit *


Source: Schoeps-CCM4's( Wide ORTF)>Vms5u + Schoeps-CCM41v's>(ORTF)> Sonosax sx-m2 >V3 spdif> R-44(OCM)>@24/48
Location: FOB/DFC 40 ft from stage
Transfer: R44>cd wave>wavelab(fades/resample)>trader's little helper>flac> tagged in foobar 2000
Taped & transferred by Jamie Scott


Set 1:

01 Intro
02 Pretty Daughter
03 Sometimes I've Won
04 Strophe
05 Too Late Now
06 Rain Still Falls
07 Damned If The Right One Didn't Go Wrong
08 Maybe You Will Change Your Mind
09 New Instrumental
10 Don't Worry Happy Birthday
11 Looking Back Over My Shoulder>
12 Death Trip> Funcky Bitch> Death Trip

Set 2:

01 Intro
02 Blue Collar Blues
03 Vamp In The Middle *
04 Kentucky Mandolin
05 Don't Let Your Deal Go Down
06 Holdin>
07 Casualty
08 Pockets
09 Pan American
10 Ripcord Blues
11 My Gal>
12 Snow On The Pines>
13 Raleigh & Spencer
14 Crowd

Encore:

15 Night Out
16 Dim Lights Thick Smoke
17 Troubled Mind
18 Hines House Music

Comment: Jason Carter on fiddle entire show
* = Jason Carter on vocals
Checksums; flac fingerprint file generated by Trader\\\'s Little Helper<br />
; generated on December 30, 2012, at 17:17:24<br />
<br />
ymsb 2012-12-29 4ch d1t01.flac:889195dd9f56a7eebd9ac30a8a466601<br />
ymsb 2012-12-29 4ch d1t02.flac:e956213b8d211a64280b3a1e9e1232f2<br />
ymsb 2012-12-29 4ch d1t03.flac:afa51922776701ce70567af0af538aeb<br />
ymsb 2012-12-29 4ch d1t04.flac:6be1319540c7547cf62eed036a01003e<br />
ymsb 2012-12-29 4ch d1t05.flac:53bf02b33c6467b2265409880c99035d<br />
ymsb 2012-12-29 4ch d1t06.flac:6faf4a46ffbee3f532b24410027b7b7e<br />
ymsb 2012-12-29 4ch d1t07.flac:062aea709a7e5b540fcfc1966b94f8eb<br />
ymsb 2012-12-29 4ch d1t08.flac:9830e3b531b7daa95fea0b141903975f<br />
ymsb 2012-12-29 4ch d1t09.flac:b6807872b9c28b5f54bd93898ad7e004<br />
ymsb 2012-12-29 4ch d1t10.flac:e237887e63bad7dfaa9cdfa999faccb5<br />
ymsb 2012-12-29 4ch d1t11.flac:9c28746c22554a35dbe4ddf72c381cf0<br />
ymsb 2012-12-29 4ch d1t12.flac:1435c4e7917854a7770b886a884d5e3a<br />
ymsb 2012-12-29 4ch d2t01.flac:8254749a430ec0d9eb5d93d803e6fe1b<br />
ymsb 2012-12-29 4ch d2t02.flac:c55d9f9320f7a86b878a1bb7b9981514<br />
ymsb 2012-12-29 4ch d2t03.flac:4cc36fc7ec815100653b3cbe6800dafe<br />
ymsb 2012-12-29 4ch d2t04.flac:4a5f3cf1de5a6c42dfa7b87cd662fef7<br />
ymsb 2012-12-29 4ch d2t05.flac:a802e29340aa3cb0453b595c66139619<br />
ymsb 2012-12-29 4ch d2t06.flac:7552f7806167c0dc7642a4a3388a7849<br />
ymsb 2012-12-29 4ch d2t07.flac:de9ad5a5a6c3cd4b6524861e15d97a28<br />
ymsb 2012-12-29 4ch d2t08.flac:ee15a0f98e14b71eba29c0b558f3628d<br />
ymsb 2012-12-29 4ch d2t09.flac:9ad7fc058c7cff9335072333be622fe8<br />
ymsb 2012-12-29 4ch d2t10.flac:b3644d7b8dbe4d10d4809a5d429dbfaa<br />
ymsb 2012-12-29 4ch d2t11.flac:16fc9ed9c04cfabbd49404638b3799e4<br />
ymsb 2012-12-29 4ch d2t12.flac:51c04ac0e9686b2077b38b0165b4ac77<br />
ymsb 2012-12-29 4ch d2t13.flac:57994353a0663240bb3f038343b26ded<br />
ymsb 2012-12-29 4ch d2t14.flac:3dce04047d8e6626d9d88c700c1b0c91<br />
ymsb 2012-12-29 4ch d2t15.flac:0fe4d0169a2f220152654a9b642e2e35<br />
ymsb 2012-12-29 4ch d2t16.flac:e1ce8475ccb6341e7f1e4caca551d140<br />
ymsb 2012-12-29 4ch d2t17.flac:285962d86c5f213f18f919dcb8cd07d8<br />
ymsb 2012-12-29 4ch d2t18.flac:5a0e55737a2a19391011f0ff950432f4<br />
<br />
shntool 3.0.4<br />
Copyright (C) 2000-2007 Jason Jordan <br />
<br />
length expanded size cdr WAVE problems fmt ratio filename<br />
1:47.62 19020668 B --- -- ---xx flac 0.4771 ymsb 2012-12-29 4ch d1t01.flac<br />
8:28.61 89754716 B --- -- ---xx flac 0.5825 ymsb 2012-12-29 4ch d1t02.flac<br />
4:06.34 43474412 B --- -- ---xx flac 0.5648 ymsb 2012-12-29 4ch d1t03.flac<br />
3:58.52 42105548 B --- -- ---xx flac 0.5712 ymsb 2012-12-29 4ch d1t04.flac<br />
6:52.16 72714476 B --- -- ---xx flac 0.5720 ymsb 2012-12-29 4ch d1t05.flac<br />
4:17.38 45424220 B --- -- ---xx flac 0.5562 ymsb 2012-12-29 4ch d1t06.flac<br />
6:43.30 71159804 B --- -- ---xx flac 0.5742 ymsb 2012-12-29 4ch d1t07.flac<br />
3:49.45 40501484 B --- -- ---xx flac 0.5450 ymsb 2012-12-29 4ch d1t08.flac<br />
4:41.63 49716620 B --- -- ---xx flac 0.5537 ymsb 2012-12-29 4ch d1t09.flac<br />
4:03.54 42992252 B --- -- ---xx flac 0.5721 ymsb 2012-12-29 4ch d1t10.flac<br />
8:43.47 92367788 B --- -- ---xx flac 0.5806 ymsb 2012-12-29 4ch d1t11.flac<br />
11:07.27 117722348 B --- -- ---xx flac 0.5924 ymsb 2012-12-29 4ch d1t12.flac<br />
0:45.34 8018012 B --- -- ---xx flac 0.4284 ymsb 2012-12-29 4ch d2t01.flac<br />
4:19.11 45713516 B --- -- ---xx flac 0.5413 ymsb 2012-12-29 4ch d2t02.flac<br />
6:26.31 68163356 B --- -- ---xx flac 0.5542 ymsb 2012-12-29 4ch d2t03.flac<br />
8:50.72 93661388 B --- -- ---xx flac 0.5398 ymsb 2012-12-29 4ch d2t04.flac<br />
4:03.36 42949916 B --- -- ---xx flac 0.5577 ymsb 2012-12-29 4ch d2t05.flac<br />
5:13.14 55246172 B --- -- ---xx flac 0.5458 ymsb 2012-12-29 4ch d2t06.flac<br />
7:37.64 80765372 B --- -- ---xx flac 0.5733 ymsb 2012-12-29 4ch d2t07.flac<br />
8:18.63 87995420 B --- -- ---xx flac 0.5455 ymsb 2012-12-29 4ch d2t08.flac<br />
4:17.69 45497132 B --- -- ---xx flac 0.5470 ymsb 2012-12-29 4ch d2t09.flac<br />
5:14.31 55462556 B --- -- ---xx flac 0.5632 ymsb 2012-12-29 4ch d2t10.flac<br />
9:10.49 97135292 B --- -- ---xx flac 0.5620 ymsb 2012-12-29 4ch d2t11.flac<br />
17:34.02 185930348 B --- -- ---xx flac 0.5497 ymsb 2012-12-29 4ch d2t12.flac<br />
7:11.62 76174268 B --- -- ---xx flac 0.6158 ymsb 2012-12-29 4ch d2t13.flac<br />
2:54.28 30759500 B --- -- ---xx flac 0.4749 ymsb 2012-12-29 4ch d2t14.flac<br />
4:26.00 46922444 B --- -- ---xx flac 0.5574 ymsb 2012-12-29 4ch d2t15.flac<br />
5:54.54 62572652 B --- -- ---xx flac 0.5611 ymsb 2012-12-29 4ch d2t16.flac<br />
3:35.26 37987196 B --- -- ---xx flac 0.5937 ymsb 2012-12-29 4ch d2t17.flac<br />
3:43.51 39457196 B --- -- ---xx flac 0.5718 ymsb 2012-12-29 4ch d2t18.flac<br />
178:19.26 1887366072 B 0.5621 (30 files)<br />
TypeYonder Mountain String Band
Last seederLast activity 14:21 ago
Size1011.83 MB (1060985531 Bytes)
Added2012-12-30 17:33:24
Views0
Hits299
Snatched179 times
Upped byncknottypine
Num files32 files
File List
[Hide list]
filenamesizemd5
ymsb 2012-12-29 4ch d2t12.flac97.48 MBN/A
ymsb 2012-12-29 4ch d1t12.flac66.50 MBN/A
ymsb 2012-12-29 4ch d2t11.flac52.06 MBN/A
ymsb 2012-12-29 4ch d1t11.flac51.15 MBN/A
ymsb 2012-12-29 4ch d1t02.flac49.86 MBN/A
ymsb 2012-12-29 4ch d2t04.flac48.21 MBN/A
ymsb 2012-12-29 4ch d2t08.flac45.78 MBN/A
ymsb 2012-12-29 4ch d2t13.flac44.73 MBN/A
ymsb 2012-12-29 4ch d2t07.flac44.16 MBN/A
ymsb 2012-12-29 4ch d1t05.flac39.67 MBN/A
ymsb 2012-12-29 4ch d1t07.flac38.97 MBN/A
ymsb 2012-12-29 4ch d2t03.flac36.03 MBN/A
ymsb 2012-12-29 4ch d2t16.flac33.48 MBN/A
ymsb 2012-12-29 4ch d2t10.flac29.79 MBN/A
ymsb 2012-12-29 4ch d2t06.flac28.76 MBN/A
ymsb 2012-12-29 4ch d1t09.flac26.25 MBN/A
ymsb 2012-12-29 4ch d2t15.flac24.94 MBN/A
ymsb 2012-12-29 4ch d1t06.flac24.10 MBN/A
ymsb 2012-12-29 4ch d2t09.flac23.74 MBN/A
ymsb 2012-12-29 4ch d2t02.flac23.60 MBN/A
ymsb 2012-12-29 4ch d1t10.flac23.45 MBN/A
ymsb 2012-12-29 4ch d1t03.flac23.42 MBN/A
ymsb 2012-12-29 4ch d1t04.flac22.94 MBN/A
ymsb 2012-12-29 4ch d2t05.flac22.84 MBN/A
ymsb 2012-12-29 4ch d2t18.flac21.52 MBN/A
ymsb 2012-12-29 4ch d2t17.flac21.51 MBN/A
ymsb 2012-12-29 4ch d1t08.flac21.05 MBN/A
ymsb 2012-12-29 4ch d2t14.flac13.93 MBN/A
ymsb 2012-12-29 4ch d1t01.flac8.65 MBN/A
ymsb 2012-12-29 4ch d2t01.flac3.28 MBN/A
YMSB 2012-12-29 4ch schoeps flac.txt3.1 kBN/A
YMSB 2012-12-29 4ch schoeps flac.shntool_len.txt3.1 kBN/A
Peers
[See full list]
1 seeder, 0 leechers = 1 peer total

Add a comment

phishy12 2012-12-30 18:20:35
Pan american!!! did they make it through it without fucking it up? ;-)
ncknottypine 2012-12-30 18:29:35
best one yet!!!
Pearhead 2012-12-30 19:15:04
thanks for the quick ups!!!

Add a comment


http://etree.org : http://db.etree.org : http://forums.etree.org : http://wiki.etree.org : Legal : RSS Feed

Contents designed & maintained by the etree.org volunteers
1998-2014, etree.org, except where noted. All Rights Reserved.
Read our terms of service and privacy guidelines