bt.etree.org
etree.org Community Bittorrent Tracker
ArtistChris Robinson
ShowChris Robinson Band - 2012-12-06, Belly Up Tavern, Solana Beach CA **New Source CA-14 omnis > 9200**
Report this as
non-Trade-Friendly
Email us
Torrentcrb2012-12-06.ca14o.9200.flac16.torrent (click to download)
Downloads ascrb2012-12-06.ca14o.9200.flac16
Info hashec58e4a574ccb7b4c1a3946eebfb98cb4fa588e5
DescriptionChris Robinson Brotherhood
The Belly Up Tavern
Solana Beach, CA
December 6, 2012

Source: Church Audio CA-14 omnis > CHurch ST-9200 > Zoom H4N (24/48)
Mic location: 8' high / ~15' back, 25' right of center / pointed at stacks
Transfer: Soundforge 9.0 (normalize, dither, resample) > cdwav (track) > Traders Little Helper
Tagging: Foobar2000 Live Show Tagger

Taped by Aaron Bowers (obaaron)

Setlist:

- Set One -
01. Let's Go, Let's Go, Let's Go
02. Jump the Turnstile
03. Crash on the Levee
04. Eagles on the Highway
05. Mother of Stone
06. Appaloosa
07. Star or Stone
08. Rosalee

- Set Two -
01. Intro
02. Iím Ready (1st)
03. Reflections on a Brokern Mirror
04. Vibration & Light Suite
05. Driving Wheel
06. 40 Days
07. Train Robbers
08. West L.A. Fadeaway
09. Sunday Sound
10. - encore -
11. Tumbleweed in Eden
12. Hello L.A. Bye Bye Birmingham
Checksumscrb2012-12-06d1t01.flac:89a541796594f30b398fa72e2efdf803
crb2012-12-06d1t02.flac:1b45786dc2875cf531e7034c819c64f2
crb2012-12-06d1t03.flac:1228c798a4f7963aa91cdd0c88e3b06e
crb2012-12-06d1t04.flac:3d6b3b03a3ee7a8ed0d110e121ff0a91
crb2012-12-06d1t05.flac:8506d0a00c79424dff655f32aa090f05
crb2012-12-06d1t06.flac:83147a9bdf6e85a89d53c45e011b16ac
crb2012-12-06d1t07.flac:480e1699902481ce1ace4c199a89a881
crb2012-12-06d1t08.flac:b23a52f8a1248e524fb8d0a346266f1d
crb2012-12-06d2t01.flac:62348ed7cc4026decb199cfa75b2146d
crb2012-12-06d2t02.flac:0105d2cc5c76f1288762b5388473f10a
crb2012-12-06d2t03.flac:94fe3e8a3411661b062422fd51552f77
crb2012-12-06d2t04.flac:c372042a3962cdeef5366a8c0d915c4c
crb2012-12-06d2t05.flac:a9a56c2a675577f5a1f4c85064fa555a
crb2012-12-06d2t06.flac:6779bfb5d69fff012d0f87210fea4ff9
crb2012-12-06d2t07.flac:4dbdb9868534aa7866b9d7752bc98b54
crb2012-12-06d2t08.flac:12db0a8c89159a6cbc58377011ae876f
crb2012-12-06d2t09.flac:154c7dcf5eb6b2e5b80ff0978c59cf8d
crb2012-12-06d2t10.flac:afc2b75c26ff6c1200f34a7dc79fa71f
crb2012-12-06d2t11.flac:647b9f1e201a72dd02ec0fdaeeaef3a1
crb2012-12-06d2t12.flac:97523598dfad98344dd0ddf418987dba

No errors occured.


length expanded size cdr WAVE problems fmt ratio filename
6:57.37 73645868 B --- -- ---xx flac 0.5572 crb2012-12-06d1t01.flac
6:47.41 71891276 B --- -- ---xx flac 0.5833 crb2012-12-06d1t02.flac
6:35.27 69741548 B --- -- ---xx flac 0.6033 crb2012-12-06d1t03.flac
6:43.37 71176268 B --- -- ---xx flac 0.5484 crb2012-12-06d1t04.flac
8:14.60 87282764 B --- -- ---xx flac 0.5853 crb2012-12-06d1t05.flac
6:10.39 65359772 B --- -- ---xx flac 0.5252 crb2012-12-06d1t06.flac
11:28.71 121530236 B --- -- ---xx flac 0.5712 crb2012-12-06d1t07.flac
13:00.29 137660252 B --- -- ---xx flac 0.5700 crb2012-12-06d1t08.flac
0:44.15 7796924 B --- -- ---xx flac 0.4131 crb2012-12-06d2t01.flac
4:38.27 49102748 B --- -- ---xx flac 0.5606 crb2012-12-06d2t02.flac
8:00.60 84813164 B --- -- ---xx flac 0.5262 crb2012-12-06d2t03.flac
13:31.16 143098076 B --- -- ---xx flac 0.5807 crb2012-12-06d2t04.flac
9:22.29 99205052 B --- -- ---xx flac 0.4999 crb2012-12-06d2t05.flac
9:48.68 103883180 B --- -- ---xx flac 0.5878 crb2012-12-06d2t06.flac
9:03.67 95942828 B --- -- ---xx flac 0.5353 crb2012-12-06d2t07.flac
10:16.67 108820028 B --- -- ---xx flac 0.5947 crb2012-12-06d2t08.flac
11:46.73 124710140 B --- -- ---xx flac 0.5859 crb2012-12-06d2t09.flac
1:16.40 13500524 B --- -- ---xx flac 0.4722 crb2012-12-06d2t10.flac
10:43.41 113521676 B --- -- ---xx flac 0.5453 crb2012-12-06d2t11.flac
5:32.16 58602476 B --- -- ---xx flac 0.5692 crb2012-12-06d2t12.flac
160:44.35 1701284800 B 0.5627 (20 files)

No errors occured.
TypeChris Robinson
Last seederLast activity 2:35:25 ago
Size912.94 MB (957285726 Bytes)
Added2012-12-31 00:30:04
Views0
Hits293
Snatched74 times
Upped byobaaron
Num files
[See full list]
24 files
Seeders
[Hide list]
0 Seeder(s)
Leechers
[Hide list]
0 Leecher(s)

Add a comment

obaaron 2012-12-31 00:54:32
Here is my other source: http://bt.etree.org/details.php?id=560677
GreenCrow 2012-12-31 10:38:24
Thanks for sharing!!

Cheers GreenCrow

Add a comment


http://etree.org : http://db.etree.org : http://forums.etree.org : http://wiki.etree.org : Legal : RSS Feed

Contents designed & maintained by the etree.org volunteers
© 1998-2014, etree.org, except where noted. All Rights Reserved.
Read our terms of service and privacy guidelines