bt.etree.org
etree.org Community Bittorrent Tracker
ArtistWidespread Panic
ShowWidespread Panic Tunes For Tots Benefit The Fillmore Charlotte, North Carolina 12/30/2012 (Schoeps CCM4V'S)
Report this as
non-Trade-Friendly
Email us
Torrentwsp2012-12-30.flac16.torrent (click to download)
Downloads aswsp2012-12-30.flac16
Info hasha1f58242678b131d2704ad831d67c5c4a90ece33
db linkhttp://db.etree.org/shn/123280 | Show | Source
DescriptionWidespread Panic
Tunes For Tots Benefit
The Fillmore
Charlotte, North Carolina
12/30/2012

Source: Schoeps CCM4V'S(din)>Lunatec V2>Benchmark AD2K>
Sound Devices 722 (24/48)
BOB/OTS/DFC/KFC/ZFC/AARP 6 1/2' High
DSP: Sound Devices 722>Sound Forge 9.0>CD Wave>flac(16)
Recorded By: Z-Man
Seeded By: Z-Man

Disc I 1st Set

01 The Boys Are Back In Town PA
02 Stop/Go >
03 Pleas >
04 Give
05 Christmas Katie >
06 Good Morning Little Schoolgirl >
07 The Other One Jam >
08 Radio Child
09 Trouble

Disc II 1st Set Con't

01 Pickin' Up The Pieces >
02 Good People >
03 Use Me >
04 Makes Sense To Me
2nd Set:
05 Diner >
06 Blackout Blues
07 Under The Radar Jam
08 Space Wrangler

Disc III 2nd Set Con't

01 *Ain't No Use >
02 Hatfield >
03 Impossible >
04 Worry >
05 Climb To Safety
Encore:
06 JB Thanks
07 Papa's Home >
08 Travelin' Light
09 Welcome Back Kotter outro

* With Red Hot Mama Theme

Flac Fingerprint

wsp2012-12-30d01t01.flac:bfa013df9b152b1b881432b947616543
wsp2012-12-30d01t02.flac:6c69f4f5da36661d79095e8c858acf85
wsp2012-12-30d01t03.flac:02e0be8b8c226c8dcc873b5e2ce347e8
wsp2012-12-30d01t04.flac:d660124ce51f35a2e782b980109e2abd
wsp2012-12-30d01t05.flac:720f3a6525612629d3519b1488bc8e65
wsp2012-12-30d01t06.flac:d5ab4b098b8501e378c9237b1927648b
wsp2012-12-30d01t07.flac:fa6d77d4afad70c91882ed055d518631
wsp2012-12-30d01t08.flac:71410a295da53555f9371586385ce326
wsp2012-12-30d01t09.flac:0a7372e07a0283727a12e53c74af51db
wsp2012-12-30d02t01.flac:53d2b6c1ef64ee0aa81bf4c600bfd3f8
wsp2012-12-30d02t02.flac:b7618b0d6aeb34528729e208e1d8b98c
wsp2012-12-30d02t03.flac:956b62bda09c87c32870b5a2e1d2860b
wsp2012-12-30d02t04.flac:fad7252ecb81118ae12c0b159ee25e6a
wsp2012-12-30d02t05.flac:8b45b66a401d3c197cb4162611e09a81
wsp2012-12-30d02t06.flac:7328674e75febac3f9273acd42cadf10
wsp2012-12-30d02t07.flac:21741b137cfb6ee79cd8afa1111a9064
wsp2012-12-30d02t08.flac:0aeca701948ca6f615a6fc5d770ab50e
wsp2012-12-30d03t01.flac:3afa30f71ea9855f84fbc267b63b5135
wsp2012-12-30d03t02.flac:97abb6d870d41e60a51db9969fe65007
wsp2012-12-30d03t03.flac:59c8031082ed5d94e9b68cf594e3d7b0
wsp2012-12-30d03t04.flac:07cea1da8c1b41ef5ca6bff3d8f7c747
wsp2012-12-30d03t05.flac:4536005f0a3cf0456c6467e6c8e05e9c
wsp2012-12-30d03t06.flac:21f8ca5821251dd9fd7d2ebf3649b086
wsp2012-12-30d03t07.flac:927b30b4a2c548a1dceccc0b7dafb7ce
wsp2012-12-30d03t08.flac:70906f2995700c8aa2f4630abdf267eb
wsp2012-12-30d03t09.flac:8e5795c2877648fdaeb4400f178d7160

Shntool

length expanded size cdr WAVE problems fmt ratio filename
4:29.19 47496332 B --- -- ---xx flac 0.4479 wsp2012-12-30d01t01.flac
9:20.39 98875772 B --- -- ---xx flac 0.5137 wsp2012-12-30d01t02.flac
6:26.35 68172764 B --- -- ---xx flac 0.5467 wsp2012-12-30d01t03.flac
5:17.19 55963532 B --- -- ---xx flac 0.5600 wsp2012-12-30d01t04.flac
9:04.26 96022796 B --- -- ---xx flac 0.5028 wsp2012-12-30d01t05.flac
8:25.09 89103212 B --- -- ---xx flac 0.4758 wsp2012-12-30d01t06.flac
3:57.19 41851532 B --- -- ---xx flac 0.5221 wsp2012-12-30d01t07.flac
7:27.04 78860252 B --- -- ---xx flac 0.5445 wsp2012-12-30d01t08.flac
3:33.37 37660268 B --- -- ---xx flac 0.4718 wsp2012-12-30d01t09.flac
6:47.18 71837180 B --- -- ---xx flac 0.5063 wsp2012-12-30d02t01.flac
5:41.52 60274748 B --- -- ---xx flac 0.5537 wsp2012-12-30d02t02.flac
8:13.41 87061676 B --- -- ---xx flac 0.5550 wsp2012-12-30d02t03.flac
5:41.01 60154796 B --- -- ---xx flac 0.5387 wsp2012-12-30d02t04.flac
17:44.47 187800188 B --- -- ---xx flac 0.4974 wsp2012-12-30d02t05.flac
8:38.58 91511660 B --- -- ---xx flac 0.5066 wsp2012-12-30d02t06.flac
6:40.30 70630604 B --- -- ---xx flac 0.4866 wsp2012-12-30d02t07.flac
8:46.36 92871116 B --- -- ---xx flac 0.4940 wsp2012-12-30d02t08.flac
12:36.01 133360796 B --- -- ---xx flac 0.4794 wsp2012-12-30d03t01.flac
13:44.00 145353644 B --- -- ---xx flac 0.4769 wsp2012-12-30d03t02.flac
4:49.61 51123116 B --- -- ---xx flac 0.5294 wsp2012-12-30d03t03.flac
7:37.68 80774780 B --- -- ---xx flac 0.5556 wsp2012-12-30d03t04.flac
6:21.14 67241372 B --- -- ---xx flac 0.5361 wsp2012-12-30d03t05.flac
0:32.51 5764796 B --- -- ---xx flac 0.3847 wsp2012-12-30d03t06.flac
8:19.60 88164764 B --- -- ---xx flac 0.5066 wsp2012-12-30d03t07.flac
6:32.36 69233516 B --- -- ---xx flac 0.5100 wsp2012-12-30d03t08.flac
3:23.18 35851580 B --- -- ---xx flac 0.4392 wsp2012-12-30d03t09.flac
190:11.49 2013016792 B 0.5085 (26 files)











Checksumswsp2012-12-30d01t01.flac:bfa013df9b152b1b881432b947616543<br />
wsp2012-12-30d01t02.flac:6c69f4f5da36661d79095e8c858acf85<br />
wsp2012-12-30d01t03.flac:02e0be8b8c226c8dcc873b5e2ce347e8<br />
wsp2012-12-30d01t04.flac:d660124ce51f35a2e782b980109e2abd<br />
wsp2012-12-30d01t05.flac:720f3a6525612629d3519b1488bc8e65<br />
wsp2012-12-30d01t06.flac:d5ab4b098b8501e378c9237b1927648b<br />
wsp2012-12-30d01t07.flac:fa6d77d4afad70c91882ed055d518631<br />
wsp2012-12-30d01t08.flac:71410a295da53555f9371586385ce326<br />
wsp2012-12-30d01t09.flac:0a7372e07a0283727a12e53c74af51db<br />
wsp2012-12-30d02t01.flac:53d2b6c1ef64ee0aa81bf4c600bfd3f8<br />
wsp2012-12-30d02t02.flac:b7618b0d6aeb34528729e208e1d8b98c<br />
wsp2012-12-30d02t03.flac:956b62bda09c87c32870b5a2e1d2860b<br />
wsp2012-12-30d02t04.flac:fad7252ecb81118ae12c0b159ee25e6a<br />
wsp2012-12-30d02t05.flac:8b45b66a401d3c197cb4162611e09a81<br />
wsp2012-12-30d02t06.flac:7328674e75febac3f9273acd42cadf10<br />
wsp2012-12-30d02t07.flac:21741b137cfb6ee79cd8afa1111a9064<br />
wsp2012-12-30d02t08.flac:0aeca701948ca6f615a6fc5d770ab50e<br />
wsp2012-12-30d03t01.flac:3afa30f71ea9855f84fbc267b63b5135<br />
wsp2012-12-30d03t02.flac:97abb6d870d41e60a51db9969fe65007<br />
wsp2012-12-30d03t03.flac:59c8031082ed5d94e9b68cf594e3d7b0<br />
wsp2012-12-30d03t04.flac:07cea1da8c1b41ef5ca6bff3d8f7c747<br />
wsp2012-12-30d03t05.flac:4536005f0a3cf0456c6467e6c8e05e9c<br />
wsp2012-12-30d03t06.flac:21f8ca5821251dd9fd7d2ebf3649b086<br />
wsp2012-12-30d03t07.flac:927b30b4a2c548a1dceccc0b7dafb7ce<br />
wsp2012-12-30d03t08.flac:70906f2995700c8aa2f4630abdf267eb<br />
wsp2012-12-30d03t09.flac:8e5795c2877648fdaeb4400f178d7160<br />
TypeWidespread Panic
Last seederLast activity 14:03 ago
Size976.16 MB (1023582299 Bytes)
Added2012-12-31 02:40:22
Views0
Hits808
Snatched506 times
Upped byzmanatl
Num files
[See full list]
27 files
Seeders
[Hide list]
1 Seeder(s)
ip:portclient
version
ul
bytes
dl
bytes
ratiocompleteul
rate
dl
rate
time
connected
time
left
idle
67.189.110.xxx:59638 0 B 0 B N/A 100.00%
N/A N/A 22:45:23 N/A 14:03
0 of 1 firewalled (0%) 100.00%
N/AN/A
Leechers
[Hide list]
0 Leecher(s)

Add a comment

BostonDPA4023 2012-12-31 02:58:11
Thanks Z!!! And thanks for my call during Wrangler!!
Happy New Year my friend, see u in '13.
Tomahawk Kid 2012-12-31 03:40:46
Thank you - very much appreciated!
robked 2012-12-31 04:26:25
Many Thanks
LAStubbe 2012-12-31 06:27:16
Thought you were skipping panic this year? No UM?
BostonDPA4023 2012-12-31 07:51:22
Who would skip Panic for UM??? Certainly not Zman.
LGandM 2012-12-31 07:57:20
miss you...many huzzz !!! thanx !!!
Tom_of_Mule 2012-12-31 08:26:04
Thanks Z !
Tom
sean612 2012-12-31 08:55:23
Thanks Z-Man!
bigdaddybflo 2012-12-31 09:24:31
GO Z Go !! Pure animal ! Thanks for the love. Did Lenny tape?
sloth1976 2012-12-31 09:59:20
thank you Z!
gctaper64 2012-12-31 10:32:41
Is anyone completeing this??I usually want a few seeds but it shows just one...with 90 leaches LOL...
brofan 2012-12-31 17:39:06
Thanks, Z-Man! Have a great time in CLT. For good eats hit Boudreaux's @ 36th & Davidson in NODA, right next door to the Neighborhood Theater. Get the bourbon fried chicken....to die for.
ccole 2012-12-31 17:48:31
Thanks Z! Sounds great... as did the venue. Rock on!
stsWook 2013-01-08 12:00:11
Do NOT dl this V2 crap!!!!

better seed here:
http://bt.etree.org/details.php?id=561279

Add a comment


http://etree.org : http://db.etree.org : http://forums.etree.org : http://wiki.etree.org : Legal : RSS Feed

Contents designed & maintained by the etree.org volunteers
1998-2014, etree.org, except where noted. All Rights Reserved.
Read our terms of service and privacy guidelines