bt.etree.org
etree.org Community Bittorrent Tracker
ArtistOther
ShowLazy Lightning Triple C Brewing Company Charlotte, North Carolina 12/30/2012 (Schoeps CCM4V'S FOB)
Report this as
non-Trade-Friendly
Email us
Torrentlazy2012-12-30.flac16.torrent (click to download)
Downloads aslazy2012-12-30.flac16
Info hash4b6ee76c9dc167b71f35bca87ab4ba0aa603ddc8
DescriptionLazy Lightning
Triple C Brewery
Charlotte, North Carolina
12/30/2012

Source: Schoeps CCM4V'S(din)>Lunatec V2>Benchmark AD2K>
Sound Devices 722 (24/48)
BOB/DFC/KFC/ZFC/AARP At Rail Behind Soundboard 7' High
DSP: Sound Devices 722>Sound Forge 9.0>CD Wave>flac(16)
Recorded By: Z-Man
Seeded By: Z-Man

Disc I 1st Set

01 Althea
02 Are You Ready For The Country
03 Ophelia
04 You Ain't Goin' Nowhere
05 Lawyers, Guns, And Money
06 Mr. Soul
07 Nobody's Fault But Mine
08 Space Wrangler
09 Russian Lullabye
10 Litle Sadie
11 Cold Rain And Snow
12 ?
13 Me And The Devil Blues
Corbitt Brothers Band:
14 Cocaine Blues
15 Fire On The Mountain
16 Fire On The Mountain

Flac Fingerprint

lazy2012-12-30d01t01.flac:a15666ec3d6e9fde1a7bdb287f47d85d
lazy2012-12-30d01t02.flac:c0a2f8d5742012d24508c22411fa3f93
lazy2012-12-30d01t03.flac:c8cb0e62e4eb598694cb18cbe00616f2
lazy2012-12-30d01t04.flac:1c7bbc245ba5421bdabd4ca14e6e349c
lazy2012-12-30d01t05.flac:a2f0ea9d39e73305ae14a8fb935664f5
lazy2012-12-30d01t06.flac:27605ee85b0011c42680bb99e178deef
lazy2012-12-30d01t07.flac:d6a54cd7a1b2806a174a58dbd3526299
lazy2012-12-30d01t08.flac:1dae33b9aaad249aa0d4c109fcbf0b5d
lazy2012-12-30d01t09.flac:65799cff9b394af0d70c5e852434c0e6
lazy2012-12-30d01t10.flac:2966203e58b3b6777781922199a715f9
lazy2012-12-30d01t11.flac:c923a633b4e00a0dd1f64f1d6fa09319
lazy2012-12-30d01t12.flac:9098b18b67de422f3ee6a9020fc8a84b
lazy2012-12-30d01t13.flac:69a6aa03560ec8761f8a66551d57f1a0
lazy2012-12-30d01t14.flac:5044720c58a4f2e18190bc47ad904436
lazy2012-12-30d01t15.flac:3625d8cd6d6b35821889e61543fc981e
lazy2012-12-30d01t16.flac:14384c34effbb3bc59956fce36e21d16

Shntool

length expanded size cdr WAVE problems fmt ratio filename
6:15.73 66321740 B --- -- ---xx flac 0.4246 lazy2012-12-30d01t01.flac
5:51.65 62069324 B --- -- ---xx flac 0.4993 lazy2012-12-30d01t02.flac
3:25.10 36185564 B --- -- ---xx flac 0.4389 lazy2012-12-30d01t03.flac
3:44.43 39614780 B --- -- ---xx flac 0.4782 lazy2012-12-30d01t04.flac
3:39.29 38699852 B --- -- ---xx flac 0.5183 lazy2012-12-30d01t05.flac
4:08.63 43895420 B --- -- ---xx flac 0.4789 lazy2012-12-30d01t06.flac
4:53.64 51835772 B --- -- ---xx flac 0.4663 lazy2012-12-30d01t07.flac
7:33.27 79972748 B --- -- ---xx flac 0.4993 lazy2012-12-30d01t08.flac
2:49.31 29884556 B --- -- ---xx flac 0.4436 lazy2012-12-30d01t09.flac
2:51.43 30265580 B --- -- ---xx flac 0.4342 lazy2012-12-30d01t10.flac
8:27.04 89444252 B --- -- ---xx flac 0.4591 lazy2012-12-30d01t11.flac
5:11.59 54999212 B --- -- ---xx flac 0.4981 lazy2012-12-30d01t12.flac
6:49.22 72199388 B --- -- ---xx flac 0.4485 lazy2012-12-30d01t13.flac
4:09.52 44045948 B --- -- ---xx flac 0.5345 lazy2012-12-30d01t14.flac
4:28.26 47336396 B --- -- ---xx flac 0.5769 lazy2012-12-30d01t15.flac
5:21.00 56624444 B --- -- ---xx flac 0.5689 lazy2012-12-30d01t16.flac
79:41.11 843394976 B 0.4855 (16 files)







Checksumslazy2012-12-30d01t01.flac:a15666ec3d6e9fde1a7bdb287f47d85d
lazy2012-12-30d01t02.flac:c0a2f8d5742012d24508c22411fa3f93
lazy2012-12-30d01t03.flac:c8cb0e62e4eb598694cb18cbe00616f2
lazy2012-12-30d01t04.flac:1c7bbc245ba5421bdabd4ca14e6e349c
lazy2012-12-30d01t05.flac:a2f0ea9d39e73305ae14a8fb935664f5
lazy2012-12-30d01t06.flac:27605ee85b0011c42680bb99e178deef
lazy2012-12-30d01t07.flac:d6a54cd7a1b2806a174a58dbd3526299
lazy2012-12-30d01t08.flac:1dae33b9aaad249aa0d4c109fcbf0b5d
lazy2012-12-30d01t09.flac:65799cff9b394af0d70c5e852434c0e6
lazy2012-12-30d01t10.flac:2966203e58b3b6777781922199a715f9
lazy2012-12-30d01t11.flac:c923a633b4e00a0dd1f64f1d6fa09319
lazy2012-12-30d01t12.flac:9098b18b67de422f3ee6a9020fc8a84b
lazy2012-12-30d01t13.flac:69a6aa03560ec8761f8a66551d57f1a0
lazy2012-12-30d01t14.flac:5044720c58a4f2e18190bc47ad904436
lazy2012-12-30d01t15.flac:3625d8cd6d6b35821889e61543fc981e
lazy2012-12-30d01t16.flac:14384c34effbb3bc59956fce36e21d16
TypeOther
Last seederLast activity 113 days, 07:25:22 ago
Size390.50 MB (409465081 Bytes)
Added2012-12-31 11:49:13
Views0
Hits161
Snatched22 times
Upped byzmanatl
Num files
[See full list]
17 files
Seeders
[Hide list]
0 Seeder(s)
Leechers
[Hide list]
0 Leecher(s)

No comments yet

Add a comment


http://etree.org : http://db.etree.org : http://forums.etree.org : http://wiki.etree.org : Legal : RSS Feed

Contents designed & maintained by the etree.org volunteers
1998-2014, etree.org, except where noted. All Rights Reserved.
Read our terms of service and privacy guidelines