bt.etree.org
etree.org Community Bittorrent Tracker
ArtistUmphrey's McGee
ShowUmphrey's McGee 2012-12-28 The Tabernacle, Atlanta Ga. akg c426b
Report this as
non-Trade-Friendly
Email us
Torrentum2012-12-28.akg c426b.flac16.torrent (click to download)
Downloads asum2012-12-28.akg c426b.flac16
Info hash9ce03738c82e8524a83f4b897d076d07fc39d532
DescriptionUmphrey's McGee
2012-12-28
The Tabernacle, Atlanta, Ga.

Source: AKG c426b (mid/side dfc 1st balcony rail)>V3 (24/96)>sd722
Transfer: firewire>[wavelab 6.10: Voxengo MSED (ms processing), Crystal Resampler (downsample) iZotope Ozone 4 (dither)]>CDWav (splits)>FLACFrontend
taped and transferred by John Barren
A Team Dirty South Recording

Set 1
01. Auf Wiedersehen*>
02. Professor Wormbog>
03. Cemetery Walk
04. Slacker
05. Eat
06. Miami Virtue>
07. Walletsworth>
08. Cemetery Walk II
09. house music

Set 2
01. Phil's Farm#->
02. Puppet String->
03. Phil's Farm
04. Deeper>
05. The Floor
06. Lenny
07. Plunger>
08. Resolution@->
09. Hollywood Nights
10. crowd
Encore:
11. Prowler>
12. Puppet String
13. house music

* debut, original
# with Comma Later and Puppet String teases
@ with Eye of the Tiger (Survivor) tease
Bright Light Social Hour opened
setlist from umphreys.com

Thanks again to Jon McClelland and Umphrey's Mcgee for the great support for the tapers


Shntool
length expanded size cdr WAVE problems fmt ratio filename
3:22.44 35736332 B --- -- ---xx flac 0.5346 um2012-12-28s1t01.flac
6:42.50 71030444 B --- -- ---xx flac 0.5189 um2012-12-28s1t02.flac
9:59.33 105741260 B --- -- ---xx flac 0.5280 um2012-12-28s1t03.flac
15:23.12 162845468 B --- -- ---xx flac 0.5466 um2012-12-28s1t04.flac
5:01.01 53098796 B --- -- ---xx flac 0.5353 um2012-12-28s1t05.flac
10:39.11 112745516 B --- -- ---xx flac 0.5657 um2012-12-28s1t06.flac
7:07.54 75449852 B --- -- ---xx flac 0.5354 um2012-12-28s1t07.flac
14:31.40 153738524 B --- -- ---xx flac 0.5338 um2012-12-28s1t08.flac
1:18.72 13928588 B --- -- ---xx flac 0.4393 um2012-12-28s1t09.flac
12:45.14 134978972 B --- -- ---xx flac 0.5095 um2012-12-28s2t01.flac
10:33.58 111797660 B --- -- ---xx flac 0.5215 um2012-12-28s2t02.flac
4:26.43 47023580 B --- -- ---xx flac 0.5143 um2012-12-28s2t03.flac
4:23.40 46487324 B --- -- ---xx flac 0.5067 um2012-12-28s2t04.flac
8:37.45 91304684 B --- -- ---xx flac 0.5010 um2012-12-28s2t05.flac
11:47.54 124841852 B --- -- ---xx flac 0.4782 um2012-12-28s2t06.flac
12:21.14 130745372 B --- -- ---xx flac 0.5188 um2012-12-28s2t07.flac
10:43.53 113549900 B --- -- ---xx flac 0.5165 um2012-12-28s2t08.flac
5:15.59 55704812 B --- -- ---xx flac 0.5812 um2012-12-28s2t09.flac
3:42.21 39210236 B --- -- ---xx flac 0.4424 um2012-12-28s2t10.flac
5:29.24 58092092 B --- -- ---xx flac 0.5288 um2012-12-28s2t11.flac
3:23.22 35860988 B --- -- ---xx flac 0.5430 um2012-12-28s2t12.flac
1:48.66 19206476 B --- -- ---xx flac 0.4215 um2012-12-28s2t13.flac
169:25.05 1793118728 B 0.5222 (22 files)

Checksumsum2012-12-28s1t01.flac:fd7bd005d295c0a832b44242ac960dda
um2012-12-28s1t02.flac:b3c8946e702b08b8b1875abc1c8b4cf3
um2012-12-28s1t03.flac:aa2be66bbc10d57814cd786d5ede7c80
um2012-12-28s1t04.flac:e10450a477e0dea77fd59e452db3c7ce
um2012-12-28s1t05.flac:001aac9ba776573f398c5c31ed205fe2
um2012-12-28s1t06.flac:46672d6a4a4622640ab6d402ead50fd4
um2012-12-28s1t07.flac:dc85d6a808739cccf495af082f2d1d93
um2012-12-28s1t08.flac:8297a8749c8d6c7c3c2e29c69d8a5e68
um2012-12-28s1t09.flac:33be431240382b143314d7bbefbd2424
um2012-12-28s2t01.flac:a603362749975a768a5adac5efb6e1b5
um2012-12-28s2t02.flac:c3c9b72911e7935d0e4701ddff0e9de0
um2012-12-28s2t03.flac:9998ad0c945bd3ede5b1999a06b0b80a
um2012-12-28s2t04.flac:7d1ac80b5fa38706f7c60ebd33964989
um2012-12-28s2t05.flac:4f892c46f3e5d58b7c44cbf33fa43783
um2012-12-28s2t06.flac:ecc350b5bb6f8872658e10bd5e8affe5
um2012-12-28s2t07.flac:12e1bdecee4a445849f9353964b73dcb
um2012-12-28s2t08.flac:407e13a3ba56de26c491e1e783aaf89f
um2012-12-28s2t09.flac:382dc6c70bd1757d99e6e53160638392
um2012-12-28s2t10.flac:7a2d878e5fddd6da84e6d08f0bfe7327
um2012-12-28s2t11.flac:2857f254397fd2ecde7bd7650440e3f0
um2012-12-28s2t12.flac:510db41c9468e2ca35934b79cd2bab3c
um2012-12-28s2t13.flac:45db7af3058143dbbdafe851ea9d4865
TypeUmphrey's McGee
Last seederLast activity 8:09 ago
Size892.95 MB (936328968 Bytes)
Added2012-12-31 13:39:24
Views0
Hits182
Snatched50 times
Upped bybarren
Num files
[See full list]
24 files
Seeders
[Hide list]
1 Seeder(s)
ip:portclient
version
ul
bytes
dl
bytes
ratiocompleteul
rate
dl
rate
time
connected
time
left
idle
98.92.244.xxx:35721 μtorrent 2.2.1.0 0 B 0 B N/A 100.00%
N/A N/A 11:38:55 N/A 38:10
0 of 1 firewalled (0%) 100.00%
N/AN/A
Leechers
[Hide list]
0 Leecher(s)

Add a comment

zmanatl 2012-12-31 14:35:26
Nice work Old Man!
comesatime7 2013-01-09 05:48:41
Please stay open its going slow and I cant stay open all day.

Add a comment


http://etree.org : http://db.etree.org : http://forums.etree.org : http://wiki.etree.org : Legal : RSS Feed

Contents designed & maintained by the etree.org volunteers
1998-2014, etree.org, except where noted. All Rights Reserved.
Read our terms of service and privacy guidelines