bt.etree.org
etree.org Community Bittorrent Tracker
ArtistOther
ShowZoogma The Tabernacle Atlanta, Georgia 12/29/2012 (Schoeps CCM4V'S FOB)
Report this as
non-Trade-Friendly
Email us
Torrentzoogma2012-12-29.flac16.torrent (click to download)
Downloads aszoogma2012-12-29.flac16
Info hash07141ff8a3df4eec811bd288f580ec3fbd4b94ca
DescriptionZoogma
The Tabernacle
Atlanta, Georgia
12/29/2012

Source: Schoeps CCM4V'S(din)>Lunatec V2>Benchmark AD2K>
Sound Devices 722 (24/48)
FOB/DFC/KFC/ZFC/AARP Clamped To The Front Of Balcony
DSP: Sound Devices 722>Sound Forge 9.0>CD Wave>flac(16)
Recorded By: Z-Man
Seeded By: Z-Man

Disc I

01 PA Intro
02 Rock It (GA) >
03 Blocks >
04 Pillow >
05 Primary >
06 Classified
07 Starry Eyed
08 M 10

Flac Fingerprint

zoo2012-12-29d01t01.flac:6f499e40f5a33dccb7a4ff087e885dca
zoo2012-12-29d01t02.flac:820ecf5b12cf67ce1302aacd21e855ae
zoo2012-12-29d01t03.flac:594f324e3aa2d97a2912a81d1e8e978b
zoo2012-12-29d01t04.flac:9698076fac3634155f7ae6f80f32fa77
zoo2012-12-29d01t05.flac:4159bdd4c23e67331b7ed24a5a44dd10
zoo2012-12-29d01t06.flac:87850254f3e29c4da123c01b8ad7b2ca
zoo2012-12-29d01t07.flac:63bf93ec081c647cefda584875732c15
zoo2012-12-29d01t08.flac:f0357ca00a2d25291073994551fd9584

Shntool

length expanded size cdr WAVE problems fmt ratio filename
1:37.41 17207276 B --- -- ---xx flac 0.3939 zoo2012-12-29d01t01.flac
5:01.21 53145836 B --- -- ---xx flac 0.5698 zoo2012-12-29d01t02.flac
7:46.23 82256540 B --- -- ---xx flac 0.5192 zoo2012-12-29d01t03.flac
7:09.65 75828524 B --- -- ---xx flac 0.5571 zoo2012-12-29d01t04.flac
4:42.35 49827164 B --- -- ---xx flac 0.5096 zoo2012-12-29d01t05.flac
10:31.68 111468380 B --- -- ---xx flac 0.5440 zoo2012-12-29d01t06.flac
13:23.22 141700988 B --- -- ---xx flac 0.5479 zoo2012-12-29d01t07.flac
10:46.60 114095564 B --- -- ---xx flac 0.5656 zoo2012-12-29d01t08.flac
60:59.35 645530272 B 0.5425 (8 files)










Checksumszoo2012-12-29d01t01.flac:6f499e40f5a33dccb7a4ff087e885dca
zoo2012-12-29d01t02.flac:820ecf5b12cf67ce1302aacd21e855ae
zoo2012-12-29d01t03.flac:594f324e3aa2d97a2912a81d1e8e978b
zoo2012-12-29d01t04.flac:9698076fac3634155f7ae6f80f32fa77
zoo2012-12-29d01t05.flac:4159bdd4c23e67331b7ed24a5a44dd10
zoo2012-12-29d01t06.flac:87850254f3e29c4da123c01b8ad7b2ca
zoo2012-12-29d01t07.flac:63bf93ec081c647cefda584875732c15
zoo2012-12-29d01t08.flac:f0357ca00a2d25291073994551fd9584
TypeOther
Last seederLast activity 96 days, 12:51:00 ago
Size334.00 MB (350220173 Bytes)
Added2012-12-31 17:12:24
Views0
Hits133
Snatched19 times
Upped byzmanatl
Num files
[See full list]
9 files
Seeders
[Hide list]
0 Seeder(s)
Leechers
[Hide list]
0 Leecher(s)

No comments yet

Add a comment


http://etree.org : http://db.etree.org : http://forums.etree.org : http://wiki.etree.org : Legal : RSS Feed

Contents designed & maintained by the etree.org volunteers
1998-2014, etree.org, except where noted. All Rights Reserved.
Read our terms of service and privacy guidelines