bt.etree.org
etree.org Community Bittorrent Tracker
ArtistYonder Mountain String Band
ShowYonder Mountain String Band 2012-12-30. Boulder Theater - Boulder, CO. * 4ch schoeps *
Report this as
non-Trade-Friendly
Email us
TorrentYMSB 2012-12-30 4ch schoeps flac.torrent (click to download)
Downloads asYMSB 2012-12-30 4ch schoeps flac
Info hash8b9ed469cfaba2b2d7779ae1318182e3906f26ea
DescriptionYonder Mountain String Band
2012/30/12 (Sun)
Boulder Theater - Boulder, CO

* 16 bit *


Source: Schoeps-CCM4's( Wide ORTF)>Vms5u + Schoeps-CCM41v's>(ORTF)> V3 spdif> R-44(OCM)>@24/48
Location: FOB/DFC 40 ft from stage
Transfer: R44>cd wave>wavelab(fades/resample)>trader's little helper>flac
Taped & transferred by Jamie Scott

Set 1:

01 Intro
02 Out Of The Blue
03 River
04 Loved You Enough
05 Honestly
06 Half Moon Rising
07 Only A Northern Song
08 Rag Doll(1)
09 New Deal Train(1)
10 I Second That Emotion(1)(2)
11 Love What I Do For A Living(1)(2)
12 East Nashville Easter(1)

Set 2:

01 Intro
02 Peace Of Mind
03 Don't You Lean On Me
04 Maid Of The Canyon
05 Belle Parker
06 Rag Mama
07 No Expectation
08 Jail Song
09 Fine Excuses(1)
10 Hey Bulldog(1)
11 Criminal(1)
12 The Seeker(1)(2)
13 Traffic Jam(1)>
14 Legalize It(1)>
15 Traffic Jam(1)
16 Crowd

Encore:

17 Dreams
18 Southbound
19 Shakedown Street(1)

Comment:

(1)= Christian Teele on drums and Nick Forester on electric & steel guitar
(2)= first time played
Checksums; flac fingerprint file generated by Trader's Little Helper
; generated on December 31, 2012, at 18:42:57

ymsb 2012-12-30 4ch d1t01.flac:57b8d40d20c828147c9aeef2e0216563
ymsb 2012-12-30 4ch d1t02.flac:b7ca82d79a2b3fbe5d21870882c24fbc
ymsb 2012-12-30 4ch d1t03.flac:fac0b52c4bdd84c960912a501707383b
ymsb 2012-12-30 4ch d1t04.flac:9082220c144b357b45bbe2d1fee5a623
ymsb 2012-12-30 4ch d1t05.flac:77864592df9701cc383045b9b4eca4eb
ymsb 2012-12-30 4ch d1t06.flac:4bd5f4e35f54afc36f08cb3b145ac208
ymsb 2012-12-30 4ch d1t07.flac:674f70e15c73b76f8f2ebe21e094d9bb
ymsb 2012-12-30 4ch d1t08.flac:8226c8c2b60b7828129249fe30410025
ymsb 2012-12-30 4ch d1t09.flac:4bf283f095f0e295abbc2836d6d42989
ymsb 2012-12-30 4ch d1t10.flac:9954443d7c08934cf9559f708a4068c0
ymsb 2012-12-30 4ch d1t11.flac:72ca2755689cba5082f8e182bc462f25
ymsb 2012-12-30 4ch d1t12.flac:4d1400f68305ea1f70ed4edf9dc95ad9
ymsb 2012-12-30 4ch d2t01.flac:a9a73460e8ea8b659f2bc5bdb6a71afd
ymsb 2012-12-30 4ch d2t02.flac:ea09d87a00fd8b861177e578b806dfa5
ymsb 2012-12-30 4ch d2t03.flac:02c85e4c93ad1454c7d0b0449073b91e
ymsb 2012-12-30 4ch d2t04.flac:e9986f984bdfd82fbf9f2ed1591c4db4
ymsb 2012-12-30 4ch d2t05.flac:d63a83fa3d63d0245a9d6545224545d9
ymsb 2012-12-30 4ch d2t06.flac:8cb6dfe4aab1f5b8b3d3b21d4a7261da
ymsb 2012-12-30 4ch d2t07.flac:97cdfd45240875e4a5098736cf730b5f
ymsb 2012-12-30 4ch d2t08.flac:75b9453cd29b07398950a6406962acb4
ymsb 2012-12-30 4ch d2t09.flac:aa2897ab58f1e4a7a4a33b0d77850fa5
ymsb 2012-12-30 4ch d2t10.flac:fb798f7792101803f49ac7ebbf2b6019
ymsb 2012-12-30 4ch d2t11.flac:122c2603d5fa3a6e149271b909f6ef85
ymsb 2012-12-30 4ch d2t12.flac:29675dd0887db2a6d1fc471796414fa9
ymsb 2012-12-30 4ch d2t13.flac:63e5a9396dde2dcaa01ccc36b362a3b9
ymsb 2012-12-30 4ch d2t14.flac:79f0ac9ce0b6f92a0aab812e089f5008
ymsb 2012-12-30 4ch d2t15.flac:2c615abcba35a6f289d7a2c7b8b29225
ymsb 2012-12-30 4ch d2t16.flac:61e9d80296792fa37f5fabab7e198152
ymsb 2012-12-30 4ch d2t17.flac:c12c4ffdead63383999df44c952aaf8d
ymsb 2012-12-30 4ch d2t18.flac:77c5b01f0ce90121b83fa3d80d8e44d6
ymsb 2012-12-30 4ch d2t19.flac:5014c0749fff5b1715138f782f9b6d7c


shntool 3.0.4
Copyright (C) 2000-2007 Jason Jordan <shnutils@freeshell.org>

length expanded size cdr WAVE problems fmt ratio filename
1:40.18 17682380 B --- -- ---xx flac 0.4349 ymsb 2012-12-30 4ch d1t01.flac
6:17.41 66599276 B --- -- ---xx flac 0.5517 ymsb 2012-12-30 4ch d1t02.flac
3:38.60 38596364 B --- -- ---xx flac 0.5418 ymsb 2012-12-30 4ch d1t03.flac
5:07.03 54161900 B --- -- ---xx flac 0.5348 ymsb 2012-12-30 4ch d1t04.flac
8:25.15 89117324 B --- -- ---xx flac 0.5558 ymsb 2012-12-30 4ch d1t05.flac
5:04.27 53689148 B --- -- ---xx flac 0.5580 ymsb 2012-12-30 4ch d1t06.flac
8:47.06 92976956 B --- -- ---xx flac 0.5598 ymsb 2012-12-30 4ch d1t07.flac
11:34.37 122508668 B --- -- ---xx flac 0.6161 ymsb 2012-12-30 4ch d1t08.flac
5:50.67 61897628 B --- -- ---xx flac 0.5793 ymsb 2012-12-30 4ch d1t09.flac
10:40.36 112980716 B --- -- ---xx flac 0.6135 ymsb 2012-12-30 4ch d1t10.flac
4:34.23 48387740 B --- -- ---xx flac 0.5757 ymsb 2012-12-30 4ch d1t11.flac
7:16.52 77032748 B --- -- ---xx flac 0.6370 ymsb 2012-12-30 4ch d1t12.flac
1:38.29 17355452 B --- -- ---xx flac 0.4278 ymsb 2012-12-30 4ch d2t01.flac
19:31.72 206733788 B --- -- ---xx flac 0.5448 ymsb 2012-12-30 4ch d2t02.flac
2:58.72 31568588 B --- -- ---xx flac 0.5336 ymsb 2012-12-30 4ch d2t03.flac
3:37.18 38321180 B --- -- ---xx flac 0.5483 ymsb 2012-12-30 4ch d2t04.flac
4:36.18 48728780 B --- -- ---xx flac 0.5336 ymsb 2012-12-30 4ch d2t05.flac
4:16.01 45160796 B --- -- ---xx flac 0.5550 ymsb 2012-12-30 4ch d2t06.flac
11:13.02 118721948 B --- -- ---xx flac 0.5600 ymsb 2012-12-30 4ch d2t07.flac
5:27.67 57840428 B --- -- ---xx flac 0.5415 ymsb 2012-12-30 4ch d2t08.flac
5:14.47 55500188 B --- -- ---xx flac 0.5922 ymsb 2012-12-30 4ch d2t09.flac
6:40.35 70642364 B --- -- ---xx flac 0.6174 ymsb 2012-12-30 4ch d2t10.flac
5:49.71 61730636 B --- -- ---xx flac 0.6266 ymsb 2012-12-30 4ch d2t11.flac
4:10.40 44194124 B --- -- ---xx flac 0.6214 ymsb 2012-12-30 4ch d2t12.flac
7:33.11 79935116 B --- -- ---xx flac 0.6190 ymsb 2012-12-30 4ch d2t13.flac
6:12.04 65630252 B --- -- ---xx flac 0.6145 ymsb 2012-12-30 4ch d2t14.flac
1:56.52 20584748 B --- -- ---xx flac 0.6284 ymsb 2012-12-30 4ch d2t15.flac
2:50.01 29990396 B --- -- ---xx flac 0.4823 ymsb 2012-12-30 4ch d2t16.flac
5:32.44 58668332 B --- -- ---xx flac 0.5608 ymsb 2012-12-30 4ch d2t17.flac
4:53.31 51758156 B --- -- ---xx flac 0.5564 ymsb 2012-12-30 4ch d2t18.flac
13:39.68 144631580 B --- -- ---xx flac 0.6292 ymsb 2012-12-30 4ch d2t19.flac
196:50.18 2083327700 B 0.5773 (31 files)
TypeYonder Mountain String Band
Last seederLast activity 1 day, 06:00:43 ago
Size1.120 GB (1202727131 Bytes)
Added2012-12-31 18:51:34
Views0
Hits313
Snatched158 times
Upped byncknottypine
Num files
[See full list]
33 files
Seeders
[Hide list]
0 Seeder(s)
Leechers
[Hide list]
0 Leecher(s)

Add a comment

phishy12 2012-12-31 20:14:10
The seeker and legalize it!!! Fucking sweet!!
phishy12 2012-12-31 20:15:04
Oh, and shakedown too!! Jealous
ncknottypine 2012-12-31 20:18:49
:)...

Happy New Year Buddy!!!!
phillysci 2012-12-31 21:44:42
Damn, missed the show by a night. Nice work, Jaime. Aren't you glad Todd and I convinced you to hit this instead of cheese? lol
spaceotter 2013-01-02 19:32:57
Second That Emotion was played 2/28/07 with Forster. Love What I Do For a Living was played 6/27/04. Neither were debuts here.
ncknottypine 2013-01-03 02:04:02
thanks for the info spaceotter, i'll pass that on to mr. hines!!!

Add a comment


http://etree.org : http://db.etree.org : http://forums.etree.org : http://wiki.etree.org : Legal : RSS Feed

Contents designed & maintained by the etree.org volunteers
1998-2014, etree.org, except where noted. All Rights Reserved.
Read our terms of service and privacy guidelines