bt.etree.org
etree.org Community Bittorrent Tracker
ArtistWidespread Panic
ShowWidespread Panic Time Warner Cable Arena Charlotte, North Carolina 12/31/2012 (Schoeps CCM4V'S FOB)
Report this as
non-Trade-Friendly
Email us
Torrentwsp2012-12-31.flac16.torrent (click to download)
Downloads aswsp2012-12-31.flac16
Info hash70be0394e4f93b47a4329d7e023f3b93b5f674e3
db linkhttp://db.etree.org/shn/123289 | Show | Source
DescriptionWidespread Panic
Time Warner Cable Arena
Charlotte, North Carolina
12/31/2012

Source: Schoeps CCM4V'S(din)>Lunatec V2>Benchmark AD2K>
Sound Devices 722 (24/48)
FOB/DFC/KFC/ZFC/AARP Just inside The Soundboard Cage, 8' High
DSP: Sound Devices 722>Sound Forge 9.0>CD Wave>flac(16)
Recorded By: Z-Man
Seeded By: Z-Man

Disc I 1st Set

01 Greeting
02 Last Dance >
03 Vacation >
04 Last Dance >
05 Ribs And Whiskey
06 That Thang >
07 Stop Breakin' Down
08 All Time Low >
09 Jam >
10 Rock

Disc II 2nd Set

01 Tuning
02 Disco >
03 Greta >
04 Love Tractor
05 Sell, Sell >
06 Machine >
07 Barstools
08 Up All Night
09 Midnight Special

Disc III 3rd Set

01 Countdown
02 Auld Lang Syn
03 Tequila
04 Tuning
05 Pigeons
06 Time Is On My Side >
07 Fishwater >
08 Drum Solo >
09 Fishwater
10 Blue Indian >
11 Ride Me High >
12 Goin' Out West >

Disc IV 3rd Set Con't

01 Jack >
02 Maggot Brain >
03 Chilly Water
04 Ain't Life Grand
Encore:
05 Thanks
06 Drivin' Song >
07 Ballad Of John And Yoko
08 This Is Christmas >
09 Drivin' Song >
10 Tall Boy

Flac Fingerprint

wsp2012-12-31d01t01.flac:108f1dae450f5cfa3b973a3ce24f98e1
wsp2012-12-31d01t02.flac:ae907b7db417783db99600ca2bba7d7d
wsp2012-12-31d01t03.flac:f750b3c6c38d77ba3be253d417e3bfaa
wsp2012-12-31d01t04.flac:a0afc39e4ec6520fb8397e82470ee228
wsp2012-12-31d01t05.flac:5f382742d487b5e44fc798a1448ddcdc
wsp2012-12-31d01t06.flac:56a940654f517eaafaf8c50f617feddc
wsp2012-12-31d01t07.flac:43c91e70c8a023067f6d8b6fd7e05b6c
wsp2012-12-31d01t08.flac:e9ad7c3eacb4048361aaabe9cb64bc9f
wsp2012-12-31d01t09.flac:7b467201696acd7ba2f65a0f9a5b2d6f
wsp2012-12-31d01t10.flac:bc5133b4da57633a479f58d42962c0e6
wsp2012-12-31d02t01.flac:547f47c9ca520132ee89fbe98634033f
wsp2012-12-31d02t02.flac:dca8e60ba21d31f52d49dcb42e12cb1d
wsp2012-12-31d02t03.flac:67f0cf172f49a00328d6adcb80e8fd64
wsp2012-12-31d02t04.flac:ec0a4a2666d8b66d85817133391aea8b
wsp2012-12-31d02t05.flac:404b066ae8ca1e50dd3fee8dae105ac3
wsp2012-12-31d02t06.flac:0c50c3a27930f2fd0cc7fa5a86ff4733
wsp2012-12-31d02t07.flac:5f350f2d8ca0bd228072e9f138fb070a
wsp2012-12-31d02t08.flac:f28673e4c933b6c26cbc795d0580c748
wsp2012-12-31d02t09.flac:75bb43ac369b513b8a7508327e70ff69
wsp2012-12-31d03t01.flac:32578d307dfc4adfd1c1107044c4b03f
wsp2012-12-31d03t02.flac:1719407e88aea219012d3d52c78c16f0
wsp2012-12-31d03t03.flac:7c719a372adf77002ce3172860381a28
wsp2012-12-31d03t04.flac:e90e9fc56bb0f66212a98ee9f950a511
wsp2012-12-31d03t05.flac:1822d5f89928bfb8a2030b21a29e74fa
wsp2012-12-31d03t06.flac:2d30e512d4ea5831c3dd898c30a83dca
wsp2012-12-31d03t07.flac:560174346a43697ab874171278514447
wsp2012-12-31d03t08.flac:df7f801740088a190357b60512ace13f
wsp2012-12-31d03t09.flac:a8f28c64d788bc003b68f9967f5f301e
wsp2012-12-31d03t10.flac:dc044c4a21a13dbbc6c824b1a92f0e48
wsp2012-12-31d03t11.flac:1e1bc3787d7778a07ffd615ff25e8577
wsp2012-12-31d03t12.flac:053899ea5948f710fc56ec3d1fdd2c10
wsp2012-12-31d04t01.flac:c8b7b55d3468fbc463885c4af94ea14b
wsp2012-12-31d04t02.flac:3f61f9b5abf32ae7f733c6abf2f5f34b
wsp2012-12-31d04t03.flac:2dd426ee80e88f3e71138a842c3ff04a
wsp2012-12-31d04t04.flac:dbaa3037fad4f90758930c929819eefd
wsp2012-12-31d04t05.flac:adf598c4092deae2b7eae73a4f526bbd
wsp2012-12-31d04t06.flac:9e583269c5dfdd10ac6888acc23139b4
wsp2012-12-31d04t07.flac:aac67d1c35c4d9ec4afb7af1c5f3fbd1
wsp2012-12-31d04t08.flac:6a2f3190b97dbbffd830b910f2dd9818
wsp2012-12-31d04t09.flac:eb7dee4cdf1df066f9f64ec00fc4fa87
wsp2012-12-31d04t10.flac:2e3195063993aa3aef8ed84b268595af

Shntool

length expanded size cdr WAVE problems fmt ratio filename
0:20.19 3572732 B --- -- ---xx flac 0.4352 wsp2012-12-31d01t01.flac
4:28.60 47416364 B --- -- ---xx flac 0.5117 wsp2012-12-31d01t02.flac
9:59.57 105797708 B --- -- ---xx flac 0.4409 wsp2012-12-31d01t03.flac
2:43.69 28915532 B --- -- ---xx flac 0.4768 wsp2012-12-31d01t04.flac
7:25.21 78547436 B --- -- ---xx flac 0.4852 wsp2012-12-31d01t05.flac
9:00.64 95406572 B --- -- ---xx flac 0.4776 wsp2012-12-31d01t06.flac
6:46.65 71771324 B --- -- ---xx flac 0.4822 wsp2012-12-31d01t07.flac
5:53.61 62412716 B --- -- ---xx flac 0.5273 wsp2012-12-31d01t08.flac
4:10.57 44234108 B --- -- ---xx flac 0.5040 wsp2012-12-31d01t09.flac
6:51.34 72580412 B --- -- ---xx flac 0.4978 wsp2012-12-31d01t10.flac
0:21.06 3718556 B --- -- ---xx flac 0.4003 wsp2012-12-31d02t01.flac
4:37.33 48940460 B --- -- ---xx flac 0.5144 wsp2012-12-31d02t02.flac
8:12.50 86906444 B --- -- ---xx flac 0.5207 wsp2012-12-31d02t03.flac
6:33.13 69355820 B --- -- ---xx flac 0.5116 wsp2012-12-31d02t04.flac
4:40.34 49472012 B --- -- ---xx flac 0.4928 wsp2012-12-31d02t05.flac
3:06.24 32866892 B --- -- ---xx flac 0.5331 wsp2012-12-31d02t06.flac
13:38.00 144295244 B --- -- ---xx flac 0.5008 wsp2012-12-31d02t07.flac
7:56.07 83982908 B --- -- ---xx flac 0.4743 wsp2012-12-31d02t08.flac
7:40.09 81165212 B --- -- ---xx flac 0.4504 wsp2012-12-31d02t09.flac
0:49.15 8678924 B --- -- ---xx flac 0.4277 wsp2012-12-31d03t01.flac
2:27.70 26095484 B --- -- ---xx flac 0.4605 wsp2012-12-31d03t02.flac
2:00.17 21208028 B --- -- ---xx flac 0.3961 wsp2012-12-31d03t03.flac
0:31.05 5480204 B --- -- ---xx flac 0.3739 wsp2012-12-31d03t04.flac
9:32.44 101004332 B --- -- ---xx flac 0.4897 wsp2012-12-31d03t05.flac
3:47.34 40122812 B --- -- ---xx flac 0.4638 wsp2012-12-31d03t06.flac
6:09.30 65162204 B --- -- ---xx flac 0.5163 wsp2012-12-31d03t07.flac
1:06.07 11658908 B --- -- ---xx flac 0.4951 wsp2012-12-31d03t08.flac
4:41.32 49643708 B --- -- ---xx flac 0.5041 wsp2012-12-31d03t09.flac
5:28.02 57863948 B --- -- ---xx flac 0.4194 wsp2012-12-31d03t10.flac
12:56.50 137004044 B --- -- ---xx flac 0.4848 wsp2012-12-31d03t11.flac
10:09.40 107521724 B --- -- ---xx flac 0.5013 wsp2012-12-31d03t12.flac
10:01.35 106098764 B --- -- ---xx flac 0.4570 wsp2012-12-31d04t01.flac
5:14.53 55514300 B --- -- ---xx flac 0.4329 wsp2012-12-31d04t02.flac
11:12.50 118658444 B --- -- ---xx flac 0.5082 wsp2012-12-31d04t03.flac
4:59.29 52811852 B --- -- ---xx flac 0.4913 wsp2012-12-31d04t04.flac
0:37.58 6663260 B --- -- ---xx flac 0.3408 wsp2012-12-31d04t05.flac
4:16.10 45181964 B --- -- ---xx flac 0.4622 wsp2012-12-31d04t06.flac
4:30.01 47630396 B --- -- ---xx flac 0.4838 wsp2012-12-31d04t07.flac
9:50.62 104221868 B --- -- ---xx flac 0.4308 wsp2012-12-31d04t08.flac
2:32.21 26862236 B --- -- ---xx flac 0.4629 wsp2012-12-31d04t09.flac
5:24.12 57181868 B --- -- ---xx flac 0.5095 wsp2012-12-31d04t10.flac
232:46.10 2463627724 B 0.4824 (41 files)







Checksumswsp2012-12-31d01t01.flac:108f1dae450f5cfa3b973a3ce24f98e1
wsp2012-12-31d01t02.flac:ae907b7db417783db99600ca2bba7d7d
wsp2012-12-31d01t03.flac:f750b3c6c38d77ba3be253d417e3bfaa
wsp2012-12-31d01t04.flac:a0afc39e4ec6520fb8397e82470ee228
wsp2012-12-31d01t05.flac:5f382742d487b5e44fc798a1448ddcdc
wsp2012-12-31d01t06.flac:56a940654f517eaafaf8c50f617feddc
wsp2012-12-31d01t07.flac:43c91e70c8a023067f6d8b6fd7e05b6c
wsp2012-12-31d01t08.flac:e9ad7c3eacb4048361aaabe9cb64bc9f
wsp2012-12-31d01t09.flac:7b467201696acd7ba2f65a0f9a5b2d6f
wsp2012-12-31d01t10.flac:bc5133b4da57633a479f58d42962c0e6
wsp2012-12-31d02t01.flac:547f47c9ca520132ee89fbe98634033f
wsp2012-12-31d02t02.flac:dca8e60ba21d31f52d49dcb42e12cb1d
wsp2012-12-31d02t03.flac:67f0cf172f49a00328d6adcb80e8fd64
wsp2012-12-31d02t04.flac:ec0a4a2666d8b66d85817133391aea8b
wsp2012-12-31d02t05.flac:404b066ae8ca1e50dd3fee8dae105ac3
wsp2012-12-31d02t06.flac:0c50c3a27930f2fd0cc7fa5a86ff4733
wsp2012-12-31d02t07.flac:5f350f2d8ca0bd228072e9f138fb070a
wsp2012-12-31d02t08.flac:f28673e4c933b6c26cbc795d0580c748
wsp2012-12-31d02t09.flac:75bb43ac369b513b8a7508327e70ff69
wsp2012-12-31d03t01.flac:32578d307dfc4adfd1c1107044c4b03f
wsp2012-12-31d03t02.flac:1719407e88aea219012d3d52c78c16f0
wsp2012-12-31d03t03.flac:7c719a372adf77002ce3172860381a28
wsp2012-12-31d03t04.flac:e90e9fc56bb0f66212a98ee9f950a511
wsp2012-12-31d03t05.flac:1822d5f89928bfb8a2030b21a29e74fa
wsp2012-12-31d03t06.flac:2d30e512d4ea5831c3dd898c30a83dca
wsp2012-12-31d03t07.flac:560174346a43697ab874171278514447
wsp2012-12-31d03t08.flac:df7f801740088a190357b60512ace13f
wsp2012-12-31d03t09.flac:a8f28c64d788bc003b68f9967f5f301e
wsp2012-12-31d03t10.flac:dc044c4a21a13dbbc6c824b1a92f0e48
wsp2012-12-31d03t11.flac:1e1bc3787d7778a07ffd615ff25e8577
wsp2012-12-31d03t12.flac:053899ea5948f710fc56ec3d1fdd2c10
wsp2012-12-31d04t01.flac:c8b7b55d3468fbc463885c4af94ea14b
wsp2012-12-31d04t02.flac:3f61f9b5abf32ae7f733c6abf2f5f34b
wsp2012-12-31d04t03.flac:2dd426ee80e88f3e71138a842c3ff04a
wsp2012-12-31d04t04.flac:dbaa3037fad4f90758930c929819eefd
wsp2012-12-31d04t05.flac:adf598c4092deae2b7eae73a4f526bbd
wsp2012-12-31d04t06.flac:9e583269c5dfdd10ac6888acc23139b4
wsp2012-12-31d04t07.flac:aac67d1c35c4d9ec4afb7af1c5f3fbd1
wsp2012-12-31d04t08.flac:6a2f3190b97dbbffd830b910f2dd9818
wsp2012-12-31d04t09.flac:eb7dee4cdf1df066f9f64ec00fc4fa87
wsp2012-12-31d04t10.flac:2e3195063993aa3aef8ed84b268595af
TypeWidespread Panic
Last seederLast activity 31:29 ago
Size1.107 GB (1188531256 Bytes)
Added2013-01-01 05:55:13
Views0
Hits1311
Snatched902 times
Upped byzmanatl
Num files
[See full list]
42 files
Seeders
[Hide list]
1 Seeder(s)
ip:portclient
version
ul
bytes
dl
bytes
ratiocompleteul
rate
dl
rate
time
connected
time
left
idle
32.213.126.xxx:34135 μtorrent 3.1.3.0 0 B 0 B N/A 100.00%
N/A N/A 18:32:07 N/A 31:29
0 of 1 firewalled (0%) 100.00%
N/AN/A
Leechers
[Hide list]
0 Leecher(s)

Add a comment

<< Prev      Next >>
1 - 20 | 21 - 24

tedgerto 2013-01-04 13:57:31
this any good?
jsfrank 2013-01-04 14:11:34
Okay, my iPod is almost free of Widespread Herring. I do have the Chicago 2011 shows on it that I never listen to . I'll give this one a try.
Rockingny 2013-01-11 19:34:12
Thanks for yet another stellar recording!!!
stsWook 2013-01-24 11:11:27
You think that's stellar, try this! http://bt.etree.org/details.php?id=561633

1 - 20 | 21 - 24
<< Prev      Next >>

Add a comment


http://etree.org : http://db.etree.org : http://forums.etree.org : http://wiki.etree.org : Legal : RSS Feed

Contents designed & maintained by the etree.org volunteers
1998-2014, etree.org, except where noted. All Rights Reserved.
Read our terms of service and privacy guidelines