bt.etree.org
etree.org Community Bittorrent Tracker
ArtistUmphrey's McGee
ShowUmphrey's McGee 2012-12-30 The Tabernacle, Atlanta Ga. akg c426b
Report this as
non-Trade-Friendly
Email us
Torrentum2012-12-30.akg c426b.flac16.torrent (click to download)
Downloads asum2012-12-30.akg c426b.flac16
Info hashc6fc4e438bd7ae439df39a824d01569c931cd6a1
DescriptionUmphrey's McGee
2012-12-30
The Tabernacle, Atlanta, Ga.

Source: AKG c426b (mid/side dfc 1st balcony rail)>V3 (24/96)>sd722
Transfer: firewire>[wavelab 6.10: Voxengo MSED (ms processing), Crystal Resampler (downsample) iZotope Ozone 4 (dither)]>CDWav (splits)>FLACFrontend
taped and transferred by John Barren
A Team Dirty South Recording

Set 1
01. Depth Charge>
02. JaJunk* >
03. Roulette
04. Sociable Jimmy->
05. Sweetness# >
06. Uncle Wally~
07. Bad Poker~
08. Water~
09. Rocker~
10. Hey, Hey What Can I Do@
11. house music

Set 2
01. Preamble>
02. Bright Lights Big City>
03. Cocaine% ->
04. Bright Lights Big City
05. Mantis>
06. Domino Theory>
07. Shine On You Crazy Diamond>
08. Domino Theory
09. Nemo>
10. Kabump>
11. Nemo
12. Night Nurse$>
13. Mantis
14. crowd/banter
Encore:
15. In The Kitchen>
16. Cut the Cable^>
17. In The Kitchen
18. house music

* unfinished
# with Brendan and Jake on acoustics for segue
~ with Brendan and Jake on acoustics
@debut, Led Zeppelin; with Brendan and Jake on acoustics
% with Bright Lights, Big City teases
$ with Jeff Coffin on saxophone
^ debut in full, original
Support: Moon Taxi
setlist from umphreys.com

Thanks again to Jon McClelland and Umphrey's Mcgee for the great support for the tapers
I've got to thank Chris and Dave one more time, y'all are the best.

Shntool
length expanded size cdr WAVE problems fmt ratio filename
3:56.57 41764508 B --- -- ---xx flac 0.4997 um2012-12-30s1t01.flac
12:02.74 127534892 B --- -- ---xx flac 0.5311 um2012-12-30s1t02.flac
5:31.61 58531916 B --- -- ---xx flac 0.5112 um2012-12-30s1t03.flac
14:02.09 148550012 B --- -- ---xx flac 0.5217 um2012-12-30s1t04.flac
2:46.07 29298908 B --- -- ---xx flac 0.4588 um2012-12-30s1t05.flac
5:27.21 57732236 B --- -- ---xx flac 0.4952 um2012-12-30s1t06.flac
5:29.54 58162652 B --- -- ---xx flac 0.5073 um2012-12-30s1t07.flac
8:29.72 89956988 B --- -- ---xx flac 0.5049 um2012-12-30s1t08.flac
6:12.38 65710220 B --- -- ---xx flac 0.4795 um2012-12-30s1t09.flac
4:22.18 46259180 B --- -- ---xx flac 0.5154 um2012-12-30s1t10.flac
0:32.16 5682476 B --- -- ---xx flac 0.4606 um2012-12-30s1t11.flac
0:43.60 7726364 B --- -- ---xx flac 0.4107 um2012-12-30s2t01.flac
6:14.16 66011276 B --- -- ---xx flac 0.5452 um2012-12-30s2t02.flac
8:39.25 91610444 B --- -- ---xx flac 0.5576 um2012-12-30s2t03.flac
1:32.73 16400540 B --- -- ---xx flac 0.4931 um2012-12-30s2t04.flac
5:56.15 62833724 B --- -- ---xx flac 0.5302 um2012-12-30s2t05.flac
7:37.61 80758316 B --- -- ---xx flac 0.5426 um2012-12-30s2t06.flac
12:38.48 133824140 B --- -- ---xx flac 0.4954 um2012-12-30s2t07.flac
5:31.11 58414316 B --- -- ---xx flac 0.5257 um2012-12-30s2t08.flac
2:06.53 22351100 B --- -- ---xx flac 0.5111 um2012-12-30s2t09.flac
15:04.23 159519740 B --- -- ---xx flac 0.5100 um2012-12-30s2t10.flac
2:46.21 29331836 B --- -- ---xx flac 0.5109 um2012-12-30s2t11.flac
11:53.45 125879084 B --- -- ---xx flac 0.5197 um2012-12-30s2t12.flac
6:05.08 64404860 B --- -- ---xx flac 0.5246 um2012-12-30s2t13.flac
3:57.15 41842124 B --- -- ---xx flac 0.4484 um2012-12-30s2t14.flac
2:44.19 28974332 B --- -- ---xx flac 0.5334 um2012-12-30s2t15.flac
8:49.29 93383852 B --- -- ---xx flac 0.5365 um2012-12-30s2t16.flac
2:41.14 28433372 B --- -- ---xx flac 0.5200 um2012-12-30s2t17.flac
2:36.29 27586652 B --- -- ---xx flac 0.4256 um2012-12-30s2t18.flac
176:32.17 1868470060 B 0.5144 (29 files)

Checksumsum2012-12-30s1t01.flac:7f3a839bc97997e2cba36f7dee6fd014
um2012-12-30s1t02.flac:575581aac0a13807e1a8ad234bcb724c
um2012-12-30s1t03.flac:cf7ba34284fef523072743d9ecd15389
um2012-12-30s1t04.flac:c722e5013f726fbea2be6b2353338d24
um2012-12-30s1t05.flac:9e50982fab218ab1f5ae1dec20d4ad2e
um2012-12-30s1t06.flac:0a28248c27049b77dad277092d80cae0
um2012-12-30s1t07.flac:fd52de1a1a33366e1db63050b3fee566
um2012-12-30s1t08.flac:11fe14c8095ac46d2f824ec87a4dee46
um2012-12-30s1t09.flac:ae21d684d52b886bcabae7040d961111
um2012-12-30s1t10.flac:689f9201ac9b0be19cd61b0668d803da
um2012-12-30s1t11.flac:c44475cbc8339b943f1ed39ac7481906
um2012-12-30s2t01.flac:cdfc1b6e59b7f940937342f7142e36d2
um2012-12-30s2t02.flac:ed11e6d5446f213ba2efbcf7a0035ecd
um2012-12-30s2t03.flac:cbf3c10ae69bbaeae761d01d7875a673
um2012-12-30s2t04.flac:bae5b6e1df63abf7a51498080133b32e
um2012-12-30s2t05.flac:d9b65c754cdcf338c2f289655df4f55a
um2012-12-30s2t06.flac:4886e79e89736b55b3122d1ea34b8912
um2012-12-30s2t07.flac:e413d6e54ac64a38b623a7638b51c04d
um2012-12-30s2t08.flac:82f356a2c541a59a5fbb47ebda24a226
um2012-12-30s2t09.flac:8432a00085b03b5bb5f2e655eaec5424
um2012-12-30s2t10.flac:be522c312e63a3cb969fcfb3a6fbbbee
um2012-12-30s2t11.flac:88f02ccc3f01c11e5c2df5bb5ddd1d0b
um2012-12-30s2t12.flac:9b0af67f0fcfc2a391936a43b4083ff3
um2012-12-30s2t13.flac:e104984ac084207956f6b3db1d20262b
um2012-12-30s2t14.flac:091093ef3c67bd575fa61cc449054226
um2012-12-30s2t15.flac:4c648cf9df44709125b4167f3197af62
um2012-12-30s2t16.flac:5bb11237ee3af57d60a1a4dc134428c8
um2012-12-30s2t17.flac:b7c0856d903f2b4a3f9b77f8d9981d97
um2012-12-30s2t18.flac:876f0a664d0b95f5bd6bcadfc69091cc
TypeUmphrey's McGee
Last seederLast activity 24:37 ago
Size916.70 MB (961231836 Bytes)
Added2013-01-02 04:48:30
Views0
Hits229
Snatched75 times
Upped bybarren
Num files
[See full list]
31 files
Seeders
[Hide list]
3 Seeder(s)
ip:portclient
version
ul
bytes
dl
bytes
ratiocompleteul
rate
dl
rate
time
connected
time
left
idle
74.46.63.xxx:45194 0 B 0 B N/A 100.00%
N/A N/A 4:09:37 N/A 3:39:34
184.101.193.xxx:23340 0 B 0 B N/A 100.00%
N/A N/A 3:44:47 N/A 3:44:47
72.152.69.xxx:35721 μtorrent 2.2.1.0 0 B 0 B N/A 100.00%
N/A N/A 3:54:53 N/A 3:54:53
0 of 3 firewalled (0%) 100.00%
N/AN/A
Leechers
[Hide list]
0 Leecher(s)

No comments yet

Add a comment


http://etree.org : http://db.etree.org : http://forums.etree.org : http://wiki.etree.org : Legal : RSS Feed

Contents designed & maintained by the etree.org volunteers
1998-2014, etree.org, except where noted. All Rights Reserved.
Read our terms of service and privacy guidelines