bt.etree.org
etree.org Community Bittorrent Tracker
ArtistYonder Mountain String Band
ShowYonder Mountain String Band 2012-12-31. Boulder Theater - Boulder, CO. * 4ch schoeps *
Report this as
non-Trade-Friendly
Email us
TorrentYMSB 2012-12-31 4ch schoeps flac.torrent (click to download)
Downloads asYMSB 2012-12-31 4ch schoeps flac
Info hash053dcf6abbae0bec84d4e81cccfc9128a4bf0531
DescriptionYonder Mountain String Band
2012/31/12 (Mon)
Boulder Theater - Boulder, CO

* 16 bit *


Source: Schoeps-CCM4's( Wide ORTF)>Vms5u + Schoeps-CCM41v's>(ORTF)> V3 spdif> R-44(OCM)>@24/48
Location: FOB/DFC 40 ft from stage
Transfer: R44>cd wave>wavelab(fades/resample)>trader's little helper>flac
Taped & transferred by Jamie Scott


Set 1:

01 Intro
02 If You're Ever In Oklahoma
03 Jack A Roe
04 Rambler's Anthem
05 Polly Put The Kettle On
06 One More
07 Lonesome Letter(1)
08 Pass This Way
09 Lord Only Knows Part 1>
10 Southern Flavor
11 Romance Blues
12 On The Run>
13 Dawn's Early Light>
14 On The Run

Set 2:

01 Intro
02 Ramblin In The Rambler>
03 Polka On A Banjo>
04 Ramblin Reprise
05 40 Miles From Denver
06 Spanish Harlem Incident
07 Cuckoo's Nest
08 Countdown>
09 Gut Feeling/Slap your Mammy
10 Just The Same
11 Smiles Like She's alway Been A Friend(1)
12 Finally Saw The Light
13 Free To Run>
14 Keep On Going>
15 All The Time>
16 Keep On Going
17 Crowd

Encore 1:

18 Boots
19 Crow Black Chicken


Encore 2:

20 Angel>
21 Dear Prudence>
22 Angel

Comment: Darol Anger on fiddle entire show
(1)= First time played
Checksums; flac fingerprint file generated by Trader's Little Helper
; generated on January 3, 2013, at 02:34:03

ymsb 2012-12-31 4ch d1t01.flac:29a043c8660e6618dca3095f85e58232
ymsb 2012-12-31 4ch d1t02.flac:b2425f23a20910e32b513dcd268dea1a
ymsb 2012-12-31 4ch d1t03.flac:fb02771afcadc0dd88a8ae8a859bd35d
ymsb 2012-12-31 4ch d1t04.flac:94bedc9374e77c5c25d0201e8d74dc45
ymsb 2012-12-31 4ch d1t05.flac:b5f876a0f228aebf545cc4c0809fae10
ymsb 2012-12-31 4ch d1t06.flac:1361263d3077f33aa7c50af198996592
ymsb 2012-12-31 4ch d1t07.flac:29a4c97a9ce7759e4ec5a127310758b2
ymsb 2012-12-31 4ch d1t08.flac:21b3faae43f19fe7ccf3938b32933b95
ymsb 2012-12-31 4ch d1t09.flac:0e05b587dc81a300e26d92e168d4ebcf
ymsb 2012-12-31 4ch d1t10.flac:61cab92021c4a332d397ac35020f83f5
ymsb 2012-12-31 4ch d1t11.flac:6664468f36d5076c91057af4c7afabff
ymsb 2012-12-31 4ch d1t12.flac:341028da632f96bced1088aa14a26244
ymsb 2012-12-31 4ch d1t13.flac:644d4826b418a7e975750e66c4696992
ymsb 2012-12-31 4ch d1t14.flac:816fbca2e7048f9558ed669ac870e3e3
ymsb 2012-12-31 4ch d2t01.flac:aa5273bbe4096f751e7c7792c7e1a37a
ymsb 2012-12-31 4ch d2t02.flac:fe1310925923e841caa2077ac314966c
ymsb 2012-12-31 4ch d2t03.flac:aa3437d46b4024281da73980cb33e456
ymsb 2012-12-31 4ch d2t04.flac:19c3c3a86e7cd9cb999e9686f5075556
ymsb 2012-12-31 4ch d2t05.flac:3f76989a05e342a19aabddb8f894a287
ymsb 2012-12-31 4ch d2t06.flac:1eeb1819b14a29f06b462600603f23d7
ymsb 2012-12-31 4ch d2t07.flac:86cb6bfe5de2de900c5f266e02bdf76d
ymsb 2012-12-31 4ch d2t08.flac:dcb42684abc79fbb87acd617e8892c79
ymsb 2012-12-31 4ch d2t09.flac:20bd6193660df09a0550bbc06b1b3602
ymsb 2012-12-31 4ch d2t10.flac:c9ffcfb3249734bd907a663e9e6120ea
ymsb 2012-12-31 4ch d2t11.flac:7f1011da97a89d673995284358465610
ymsb 2012-12-31 4ch d2t12.flac:e65f2442bfc88ce56988b18dd02ca558
ymsb 2012-12-31 4ch d2t13.flac:f72495537afd361ebd84fd83374c07aa
ymsb 2012-12-31 4ch d2t14.flac:496e56f99e5068c23596e3cd434aea2a
ymsb 2012-12-31 4ch d2t15.flac:2a152434cb95d40399a4e12d466e5a89
ymsb 2012-12-31 4ch d2t16.flac:a11304d4de21e4453817f3c5c4bbc019
ymsb 2012-12-31 4ch d2t17.flac:3e9f1838975f73c18dc578be5fe8b49a
ymsb 2012-12-31 4ch d2t18.flac:4829963df27fcf7095c54545fc1c6ca3
ymsb 2012-12-31 4ch d2t19.flac:a00b3a3b429d2fa6ef255688802e6114
ymsb 2012-12-31 4ch d2t20.flac:cca4a08594bc04c4354f1581236ea817
ymsb 2012-12-31 4ch d2t21.flac:029baabbd29eacede5dc670ea4de090e
ymsb 2012-12-31 4ch d2t22.flac:2ff07142da41fd102a380586561d9cf3

shntool 3.0.4
Copyright (C) 2000-2007 Jason Jordan <shnutils@freeshell.org>

length expanded size cdr WAVE problems fmt ratio filename
1:27.18 15389180 B --- -- ---xx flac 0.4255 ymsb 2012-12-31 4ch d1t01.flac
7:39.72 81136988 B --- -- ---xx flac 0.5412 ymsb 2012-12-31 4ch d1t02.flac
5:46.45 61140284 B --- -- ---xx flac 0.5311 ymsb 2012-12-31 4ch d1t03.flac
4:04.03 43048700 B --- -- ---xx flac 0.5380 ymsb 2012-12-31 4ch d1t04.flac
6:25.64 68064572 B --- -- ---xx flac 0.5387 ymsb 2012-12-31 4ch d1t05.flac
7:10.11 75877916 B --- -- ---xx flac 0.5554 ymsb 2012-12-31 4ch d1t06.flac
5:41.14 60185372 B --- -- ---xx flac 0.5369 ymsb 2012-12-31 4ch d1t07.flac
9:16.53 98203100 B --- -- ---xx flac 0.5587 ymsb 2012-12-31 4ch d1t08.flac
2:23.15 25260524 B --- -- ---xx flac 0.5670 ymsb 2012-12-31 4ch d1t09.flac
5:26.52 57628748 B --- -- ---xx flac 0.5645 ymsb 2012-12-31 4ch d1t10.flac
4:26.31 46995356 B --- -- ---xx flac 0.5429 ymsb 2012-12-31 4ch d1t11.flac
8:06.23 85784540 B --- -- ---xx flac 0.5422 ymsb 2012-12-31 4ch d1t12.flac
16:54.05 178881404 B --- -- ---xx flac 0.5343 ymsb 2012-12-31 4ch d1t13.flac
3:27.73 36686540 B --- -- ---xx flac 0.5455 ymsb 2012-12-31 4ch d1t14.flac
1:49.35 19309964 B --- -- ---xx flac 0.4413 ymsb 2012-12-31 4ch d2t01.flac
2:11.20 23155484 B --- -- ---xx flac 0.5408 ymsb 2012-12-31 4ch d2t02.flac
5:12.18 55079180 B --- -- ---xx flac 0.5372 ymsb 2012-12-31 4ch d2t03.flac
2:55.29 30938252 B --- -- ---xx flac 0.5213 ymsb 2012-12-31 4ch d2t04.flac
4:03.65 43018124 B --- -- ---xx flac 0.5414 ymsb 2012-12-31 4ch d2t05.flac
3:43.71 39504236 B --- -- ---xx flac 0.5492 ymsb 2012-12-31 4ch d2t06.flac
8:06.22 85782188 B --- -- ---xx flac 0.5566 ymsb 2012-12-31 4ch d2t07.flac
4:15.15 45017324 B --- -- ---xx flac 0.5261 ymsb 2012-12-31 4ch d2t08.flac
8:30.39 90055772 B --- -- ---xx flac 0.5490 ymsb 2012-12-31 4ch d2t09.flac
4:59.09 52764812 B --- -- ---xx flac 0.5206 ymsb 2012-12-31 4ch d2t10.flac
4:41.52 49690748 B --- -- ---xx flac 0.5319 ymsb 2012-12-31 4ch d2t11.flac
5:31.45 58494284 B --- -- ---xx flac 0.5033 ymsb 2012-12-31 4ch d2t12.flac
3:53.02 41105948 B --- -- ---xx flac 0.5549 ymsb 2012-12-31 4ch d2t13.flac
6:35.25 69736844 B --- -- ---xx flac 0.5322 ymsb 2012-12-31 4ch d2t14.flac
6:25.19 67958732 B --- -- ---xx flac 0.5741 ymsb 2012-12-31 4ch d2t15.flac
6:12.46 65729036 B --- -- ---xx flac 0.5475 ymsb 2012-12-31 4ch d2t16.flac
2:42.29 28645052 B --- -- ---xx flac 0.4635 ymsb 2012-12-31 4ch d2t17.flac
2:12.23 23338940 B --- -- ---xx flac 0.5365 ymsb 2012-12-31 4ch d2t18.flac
10:06.23 106952540 B --- -- ---xx flac 0.5126 ymsb 2012-12-31 4ch d2t19.flac
8:25.46 89190236 B --- -- ---xx flac 0.5289 ymsb 2012-12-31 4ch d2t20.flac
8:53.61 94164716 B --- -- ---xx flac 0.5387 ymsb 2012-12-31 4ch d2t21.flac
5:15.33 55643660 B --- -- ---xx flac 0.5113 ymsb 2012-12-31 4ch d2t22.flac
204:59.06 2169559296 B 0.5367 (36 files)
TypeYonder Mountain String Band
Last seederLast activity 1:33 ago
Size1.084 GB (1164420099 Bytes)
Added2013-01-03 02:42:41
Views0
Hits449
Snatched286 times
Upped byncknottypine
Num files
[See full list]
38 files
Peers
[See full list]
1 seeder, 0 leechers = 1 peer total

Add a comment

Pearhead 2013-01-03 06:47:19
Thanks Jamie...can't wait to listen...first 3 nights sounded great!!!!
Panicstream 2013-01-03 18:06:38
stream's up

http://www.panicstream.net/vault/yonder-mountain-string-band-12312012-boulder-co/
dskglf 2013-01-03 21:25:12
Thank you!

Add a comment


http://etree.org : http://db.etree.org : http://forums.etree.org : http://wiki.etree.org : Legal : RSS Feed

Contents designed & maintained by the etree.org volunteers
1998-2014, etree.org, except where noted. All Rights Reserved.
Read our terms of service and privacy guidelines