bt.etree.org
etree.org Community Bittorrent Tracker
ArtistLittle Feat
ShowLittle Feat Narrows Center For The Arts Fall River, Massachusetts 1/3/2013 (Schoeps CCM4V's FOB)
Report this as
non-Trade-Friendly
Email us
Torrentlittle2013-01-03.flac16.torrent (click to download)
Downloads aslittle2013-01-03.flac16
Info hash4d8141c0bfef45242896f1679c2c52991e01017d
db linkhttp://db.etree.org/shn/123361 | Show | Source
DescriptionLittle Feat
Narrows Center For The Arts
Fall River, Massachusetts
1/3/2013

Source: Schoeps CCM4V'S(din)>Lunatec V2>Benchmark AD2K>
Sound Devices 722 (24/48)
FOB/DFC/KFC/ZFC/AARP 14' From Stage, 6 1/2' High
DSP: Sound Devices 722>Sound Forge 9.0>CD Wave>flac(16)
Recorded By: Z-Man
Seeded By: Z-Man

Disc I

01 Announcements And Introduction
02 Time Loves A Hero >
03 Day Or Night
04 Old Folks Boogie
05 One Breath At A Time
06 Dixie Chicken >
07 Bass And Drums >
08 Piano And Drums >
09 Drum Solo >
10 Piano And Drums >
11 Dixie Chicken >
12 Lively Up Yourself Jam >
13 Dixie Chicken

Disc II

01 Rooster Rag
02 A Church Falling Down
03 New Delhi Freight Train
04 Home Ground
05 Spanish Moon
06 Let It Roll
Encore:
07 Thanks
08 Oh Atlanta

Flac Fingerprint

little2013-01-03d01t01.flac:f09de7a4e7dfa83dbbbbcaea180fbf05
little2013-01-03d01t02.flac:429ff47a5daf8061f24baaf0413ad59c
little2013-01-03d01t03.flac:a20df50f15d756373c43b13d8f0aa19e
little2013-01-03d01t04.flac:078a60f8b17a0ff3fc35d636efb17267
little2013-01-03d01t05.flac:98d3732d20ecbf8a1b27e0d2b7560a32
little2013-01-03d01t06.flac:fde876e327b6ccba24bd9dae60296653
little2013-01-03d01t07.flac:7f876da366d4fdfc357b8fc9bc37695a
little2013-01-03d01t08.flac:c2fdd0a4d0f7f953128f8d0842c48063
little2013-01-03d01t09.flac:08604fabacb8cbc42ab1dfad2712c4fd
little2013-01-03d01t10.flac:5bce4cfe8b854d7ab58fd4f4c00d8998
little2013-01-03d01t11.flac:0d6f7476c1500f2b184117d1352f3790
little2013-01-03d01t12.flac:a8311395dfc5cd32c4f0487f3e61e740
little2013-01-03d01t13.flac:97ac9676e848fd8caea0fe7f0d03ef3e
little2013-01-03d02t01.flac:48da2c71e30e873bb61c94345d9ed297
little2013-01-03d02t02.flac:96f0cca330e9c41683c9e8085d627803
little2013-01-03d02t03.flac:90d3e9862ce9df4f5acd2be2f55f9bf5
little2013-01-03d02t04.flac:9407a144f541d10aec34ef8126fe2293
little2013-01-03d02t05.flac:735e7ffe72f4c119dc583388ba179865
little2013-01-03d02t06.flac:c8ad788e9aa4811929b0abc868d00f31
little2013-01-03d02t07.flac:943c251cfb29c5dfdaebd070bfd8e54a
little2013-01-03d02t08.flac:167c0d0cfee7b555877661849bc0b23f

Shntool

length expanded size cdr WAVE problems fmt ratio filename
3:08.44 33266732 B --- -- ---xx flac 0.3922 little2013-01-03d01t01.flac
5:25.67 57487628 B --- -- ---xx flac 0.5835 little2013-01-03d01t02.flac
12:42.64 134567372 B --- -- ---xx flac 0.5668 little2013-01-03d01t03.flac
7:09.42 75774428 B --- -- ---xx flac 0.5575 little2013-01-03d01t04.flac
6:36.06 69868556 B --- -- ---xx flac 0.5616 little2013-01-03d01t05.flac
5:41.36 60237116 B --- -- ---xx flac 0.4944 little2013-01-03d01t06.flac
1:48.34 19131212 B --- -- ---xx flac 0.5547 little2013-01-03d01t07.flac
3:00.08 31770860 B --- -- ---xx flac 0.4980 little2013-01-03d01t08.flac
0:59.70 10572284 B --- -- ---xx flac 0.5570 little2013-01-03d01t09.flac
1:53.39 20024972 B --- -- ---xx flac 0.4245 little2013-01-03d01t10.flac
7:46.12 82230668 B --- -- ---xx flac 0.6131 little2013-01-03d01t11.flac
0:27.44 4866332 B --- -- ---xx flac 0.5096 little2013-01-03d01t12.flac
1:54.06 20123756 B --- -- ---xx flac 0.5799 little2013-01-03d01t13.flac
7:07.51 75442796 B --- -- ---xx flac 0.5429 little2013-01-03d02t01.flac
5:53.34 62349212 B --- -- ---xx flac 0.4539 little2013-01-03d02t02.flac
5:04.25 53684444 B --- -- ---xx flac 0.5425 little2013-01-03d02t03.flac
5:14.69 55551932 B --- -- ---xx flac 0.6216 little2013-01-03d02t04.flac
8:03.50 85318844 B --- -- ---xx flac 0.6056 little2013-01-03d02t05.flac
9:22.47 99247388 B --- -- ---xx flac 0.6017 little2013-01-03d02t06.flac
0:14.57 2603708 B --- -- ---xx flac 0.5105 little2013-01-03d02t07.flac
4:48.38 50892620 B --- -- ---xx flac 0.5858 little2013-01-03d02t08.flac
104:24.18 1105012860 B 0.5565 (21 files)



















Checksumslittle2013-01-03d01t01.flac:f09de7a4e7dfa83dbbbbcaea180fbf05<br />
little2013-01-03d01t02.flac:429ff47a5daf8061f24baaf0413ad59c<br />
little2013-01-03d01t03.flac:a20df50f15d756373c43b13d8f0aa19e<br />
little2013-01-03d01t04.flac:078a60f8b17a0ff3fc35d636efb17267<br />
little2013-01-03d01t05.flac:98d3732d20ecbf8a1b27e0d2b7560a32<br />
little2013-01-03d01t06.flac:fde876e327b6ccba24bd9dae60296653<br />
little2013-01-03d01t07.flac:7f876da366d4fdfc357b8fc9bc37695a<br />
little2013-01-03d01t08.flac:c2fdd0a4d0f7f953128f8d0842c48063<br />
little2013-01-03d01t09.flac:08604fabacb8cbc42ab1dfad2712c4fd<br />
little2013-01-03d01t10.flac:5bce4cfe8b854d7ab58fd4f4c00d8998<br />
little2013-01-03d01t11.flac:0d6f7476c1500f2b184117d1352f3790<br />
little2013-01-03d01t12.flac:a8311395dfc5cd32c4f0487f3e61e740<br />
little2013-01-03d01t13.flac:97ac9676e848fd8caea0fe7f0d03ef3e<br />
little2013-01-03d02t01.flac:48da2c71e30e873bb61c94345d9ed297<br />
little2013-01-03d02t02.flac:96f0cca330e9c41683c9e8085d627803<br />
little2013-01-03d02t03.flac:90d3e9862ce9df4f5acd2be2f55f9bf5<br />
little2013-01-03d02t04.flac:9407a144f541d10aec34ef8126fe2293<br />
little2013-01-03d02t05.flac:735e7ffe72f4c119dc583388ba179865<br />
little2013-01-03d02t06.flac:c8ad788e9aa4811929b0abc868d00f31<br />
little2013-01-03d02t07.flac:943c251cfb29c5dfdaebd070bfd8e54a<br />
little2013-01-03d02t08.flac:167c0d0cfee7b555877661849bc0b23f
TypeLittle Feat
Last seederLast activity 28:33 ago
Size586.47 MB (614955373 Bytes)
Added2013-01-04 01:22:15
Views0
Hits246
Snatched132 times
Upped byzmanatl
Num files
[See full list]
22 files
Peers
[See full list]
2 seeders, 0 leechers = 2 peers total

Add a comment

brofan 2013-01-04 03:25:05
Thanks again, Z....

You truly are Zelig.
brofan 2013-01-04 03:26:56
And this just kills me:

FOB/DFC/KFC/ZFC/AARP

LMFAO
bigdaddybflo 2013-01-04 09:36:43
GO Z GO !! Thanks for the love you animal.
bigdaddybflo 2013-01-04 09:48:34
Track 4 set 2 is "home ground"
sean612 2013-01-04 10:03:08
Roll, roll, roll... roll right through the night...
brewcrew87 2013-01-04 10:04:13
this may be one of your best recordings. drums sound so clear
Blues_Ken 2013-01-04 10:39:21
Thank you Zman
rickyskaggs 2013-01-04 14:29:55
I thought your NY Resolution was to donate that 2K to less fortunate taper.
sspott 2013-01-04 14:56:38
How great is that venue; I saw MMW there a few months back and was completely 'blown away' by both the sound and atmosphere (were they still doing the Concert Poster gallery show)?

Anyway, did you see the 'house mics' in the crossbeams above the board, there's a set of large diaphram Telefunken's [M/S] suspended from the rafters… with XLR's ready to run a matrix, yowza.

I've got a Portuguese place for you to try (as well as a local bakery), the next time you're passing through town.

Sagres Restaurant | http://sagresrestaurant.com/

Spott
jcombra 2013-01-04 16:25:27
sspott Sagres is the Cheese man !! Great recomendation for Portugese food !! The Narrows is my backyard and they are the best kept secret around. I beleive the mics you see are for WMVY radio.

I often wonder how many times Z-man and i have crossed paths and i didn't even know it !! My collection is full of your recordings !!
axomxa 2013-01-04 19:54:47
Hey Z, Looks like a nice setlist. Almost went to this but something came up.
LAStubbe 2013-01-04 20:50:50
Back in DPA country I see. Man you were close!
zmanatl 2013-01-04 22:20:17
My first full day back and was not sure if I would be able to slip out by 6:00 and get there in time. I made it, thanks for the spot Chris! Been seeing these guys since 1975 and many great memories. Glad to see Paul still jamming! My thoughts are with you as you start your healing process.

Yes, those mics are used for streaming. That is one of the reasons I did not take my laptop to stream. I found out that the radio station was sold and I should have streamed. Oh well.

Hey Sweet Spot, Sagres is the bomb! There are 2-3 great Portugese places there. Lenny, the board is very close straight back. Thanks to Tiv for saving me a spot to set up and sit! See you next Sunday! I shot a few vids and will get them up on you tube when I get a chance.
zmanatl 2013-01-05 00:07:44
Here Y'all go, strictly amateur videos, but you can get an idea how it felt in the tight room!

Oh Atlanta:
http://youtu.be/OO2iumyNmXQ

Home Ground:
http://youtu.be/cFVcG975bCc

Let It Roll:
http://youtu.be/hcofapEjYME

New Delhi Freight Train:
http://youtu.be/rOP__R3zJkc

Rooster Rag:
http://youtu.be/Zz4xQ0M0vic

Spanish Moon:
http://youtu.be/9D_81zGvgfo

Dixie Chicken:
http://youtu.be/JA9mz3NiolQ
tivva 2013-01-05 14:37:20
video's came out pretty cool...

Zman....

Trying to post mine up here too....somethings f___Up...need a lil help

gimme a shout on e/mail or phone # on card I gave ya @Fall River....thanks....tiv

If not in leave # on vmail & good time to call ya back....

tiv
Albix 2013-01-08 21:52:10
On the LMA ~> http://archive.org/details/lf2013-01-03.cmc4v.z-man.123361.sbeok.flac16

Add a comment


http://etree.org : http://db.etree.org : http://forums.etree.org : http://wiki.etree.org : Legal : RSS Feed

Contents designed & maintained by the etree.org volunteers
© 1998-2014, etree.org, except where noted. All Rights Reserved.
Read our terms of service and privacy guidelines