bt.etree.org
etree.org Community Bittorrent Tracker
ArtistGrateful Dead
Showgd82-08-01.82883.fob-nak700.seligman.ford.t-flac16
Report this as
non-Trade-Friendly
Email us
Torrentgd82-08-01.82883.fob-nak700.seligman.ford.sbeok.t-flac16.torrent (click to download)
Downloads asgd82-08-01.82883.fob-nak700.seligman.ford.sbeok.t-flac16
Info hash533a16933eec2fdc66354e96957636d78e6d505a
db linkhttp://db.etree.org/shn/82883 | Show | Source
DescriptionThis is a tagged version of shnid; 82883

Grateful Dead
08/01/82 - Sunday
Zoo Amphitheatre
Oklahoma City, OK

Source: (FOB) Nakamichi CM-700s > Sony TC-D5M > MC > Cassette x2

Location: FOB, 12th Row, LOC

Taper: David Seligman

Transfer: 2nd GEN Cassettes > Nakamichi Cassette Deck 2 (azimuth adjusted) > Kind Kables RCA/XLR >
Lunatec V3 (@24 bit 96 kHz) > coax > Audiophile 2496 > WaveLab 5.0 > 24 bit WAV >
Waves L3 UltraMaximizer(dither) > 16 bit WAV > CD Wave Editor > TLH > FLAC16.

Notes:
- levels in left channel were raised slightly
- SBE's fixed w/ Trader's Little Helper. Files encoded @ level 8.
- 2nd GEN cassettes provided by Jake Feinberg
- Transfer, edits and conversion by Alex Ford
__________________________________________________________________________________________________

--Set 1--
101-d1t01 - Jack Straw
102-d1t02 - They Love Each Other
103-d1t03 - C C Rider
104-d1t04 - Tennessee Jed
105-d1t05 - Me & My Uncle ->
106-d1t06 - Big River
107-d1t07 - China Cat Sunflower ->
108-d1t08 - I Know You Rider

--Set 2--
201-d2t01 - Playing in the Band ->
202-d2t02 - Iko Iko ->
203-d2t03 - Playin' Jam ->
204-d2t04 - Lost Sailor ->
205-d2t05 - Saint of Circumstance ->
206-d2t06 - Drums ->
207-d3t01 - Space ->
208-d3t02 - The Wheel ->
209-d3t03 - Playin' Reprise ->
210-d3t04 - Black Peter ->
211-d3t05 - Around & Around ->
212-d3t06 - Johnny B. Goode

--Encore--
213-d3t07 - U.S. Blues
__________________________________________________________________________________________________

Comment:

- Jerry's 40th Birthday
__________________________________________________________________________________________________

Tagging notes:
Show information is embedded within the header of each flac file.
It will display on any player capable of directly playing flac
files. If converted to wav during processing, all tags will be
stripped, however audio data will remain unaffected. If you must
transcode to a lossy format, do so directly Flac > Lossy.
Use ffp to validate audio integrity.
Md5 values will change if tagging is altered.
B. Proctor 1-04-13
__________________________________________________________________________________________________

Shntool Output:

length expanded size cdr WAVE problems filename
5:54.50 62563244 --- -- ----- gd1982-08-01d1t01.wav
7:58.01 84321596 --- -- ----- gd1982-08-01d1t02.wav
8:46.22 92838188 --- -- ----- gd1982-08-01d1t03.wav
8:22.32 88628108 --- -- ----- gd1982-08-01d1t04.wav
2:50.44 30091532 --- -- ----- gd1982-08-01d1t05.wav
5:16.63 55890620 --- -- ----- gd1982-08-01d1t06.wav
5:29.24 58092092 --- -- ----- gd1982-08-01d1t07.wav
5:38.61 59766716 --- -- ----- gd1982-08-01d1t08.wav
13:13.43 139986380 --- -- ----- gd1982-08-01d2t01.wav
9:38.74 102133292 --- -- ----- gd1982-08-01d2t02.wav
1:47.03 18881900 --- -- ----- gd1982-08-01d2t03.wav
6:20.68 67191980 --- -- ----- gd1982-08-01d2t04.wav
8:30.12 89992268 --- -- ----- gd1982-08-01d2t05.wav
3:15.32 34473308 --- -- ----- gd1982-08-01d2t06.wav
5:57.64 63125372 --- -- ----- gd1982-08-01d3t01.wav
5:23.31 57050156 --- -- ----- gd1982-08-01d3t02.wav
4:40.15 49427324 --- -- ----- gd1982-08-01d3t03.wav
7:57.18 84185180 --- -- ----- gd1982-08-01d3t04.wav
3:56.27 41693948 --- -- ----- gd1982-08-01d3t05.wav
4:18.14 45544172 --- -- ----- gd1982-08-01d3t06.wav
5:23.35 57059564 --- -- ----- gd1982-08-01d3t07.wav
130:39.58 1382936940 B (totals for 21 files, 1.0000 overall compression ratio)
Checksumsgd1982-08-01d1t01.flac:725ce3f57fe1e2c9ded7f1b8a5c0b279
gd1982-08-01d1t02.flac:d9a981ce2a4d3077dd34fa02bd5bc9f0
gd1982-08-01d1t03.flac:2284804a05a88307c8eebaee2b067c4f
gd1982-08-01d1t04.flac:6664e1ea373f786fd493c080a8646cd6
gd1982-08-01d1t05.flac:a75769a81547002f516de41499d2af2a
gd1982-08-01d1t06.flac:c292f21683b103137efe33387e650a33
gd1982-08-01d1t07.flac:1b03feec3ab3d6a087b854bd5f55940d
gd1982-08-01d1t08.flac:b5decb181ac0baea620feef5b7978916
gd1982-08-01d2t01.flac:c79c8bf2195da6a11d37fc0047c9c8bb
gd1982-08-01d2t02.flac:6ec659a1e928cfbf267714ea3754bcea
gd1982-08-01d2t03.flac:7e7b79e63feb9c96f1e26ed0a47b2169
gd1982-08-01d2t04.flac:3d5e9b1a559cb0454141ea3e1a066c1e
gd1982-08-01d2t05.flac:bbb4f4854c9b9db8316cedc2762fc468
gd1982-08-01d2t06.flac:48af5531dc2508ef38e6e739e4bd13a7
gd1982-08-01d3t01.flac:79af126f4c7d23544e8a7b8bfc165fe7
gd1982-08-01d3t02.flac:344d132d1fedd1bbffe6b403970d6f73
gd1982-08-01d3t03.flac:5c5f15588b2ea3a1aa5d5925cf1b2070
gd1982-08-01d3t04.flac:767c05291af8ff9c07740cc0d04d5859
gd1982-08-01d3t05.flac:088e7310f4d240e9a2b835bb47ef95fc
gd1982-08-01d3t06.flac:930b941e34b6b384698b1cde4ff9b986
gd1982-08-01d3t07.flac:b494abee65617002e969c61f6ae5bf92
TypeGrateful Dead
Last seederLast activity 21 days, 17:20:03 ago
Size731.02 MB (766530337 Bytes)
Added2013-01-04 07:57:59
Views0
Hits222
Snatched101 times
Upped bygermain
Num files
[See full list]
24 files
Seeders
[Hide list]
0 Seeder(s)
Leechers
[Hide list]
0 Leecher(s)

No comments yet

Add a comment


http://etree.org : http://db.etree.org : http://forums.etree.org : http://wiki.etree.org : Legal : RSS Feed

Contents designed & maintained by the etree.org volunteers
1998-2014, etree.org, except where noted. All Rights Reserved.
Read our terms of service and privacy guidelines